<?xml version="1.0" standalone="no"?><!DOCTYPE svg PUBLIC "-//W3C//DTD SVG 1.1//EN" "http://www.w3.org/Graphics/SVG/1.1/DTD/svg11.dtd" ><svg xmlns="http://www.w3.org/2000/svg"><metadata></metadata><defs><font id="fonteditor" horiz-adv-x="1303"><font-face font-family="DOUYUFont2.0" font-weight="400" font-stretch="normal" units-per-em="1000" panose-1="0 0 0 0 0 0 0 0 0 0" ascent="879" descent="-433" x-height="0" bbox="-159 -433 1325 875" underline-thickness="50" underline-position="-75" unicode-range="U+0022-ffe5" /><missing-glyph horiz-adv-x="1000" d="M143 791 L845 791 L845 -86 L143 -86 L143 791 ZM773 748 L215 748 L494 389 L773 748 ZM801 -6 L801 712 L522 353 L801 -6 ZM773 -42 L494 317 L215 -42 L773 -42 ZM187 -6 L466 353 L187 712 L187 -6 Z" /><glyph glyph-name="quotedbl" unicode="&quot;" d="M179 872 L179 585 L48 585 L48 872 L179 872 ZM330 872 L330 585 L199 585 L199 872 L330 872 Z" /><glyph glyph-name="numbersign" unicode="#" d="M647 444 L681 444 Q700 444 714.5 456.5 Q729 469 732 489 L738 530 Q741 554 725.5 571.5 Q710 589 687 589 L707 665 Q716 704 692.5 734.5 Q669 765 630 765 L627 765 Q573 765 550 706 L519 589 L382 589 L403 665 Q412 704 388.5 734.5 Q365 765 326 765 L323 765 Q269 765 246 706 L215 589 L143 589 Q123 589 108.5 576.5 Q94 564 91 545 L85 503 Q83 479 98 461.5 Q113 444 137 444 L176 444 L142 317 L104 317 Q85 317 70.5 304.5 Q56 292 53 272 L47 231 Q44 206 59.5 189 Q75 172 98 172 L103 172 L79 84 Q71 44 94 13.5 Q117 -17 156 -17 Q210 -17 233 42 L268 172 L407 172 L384 84 Q375 44 398 13.5 Q421 -17 461 -17 Q514 -17 537 42 L573 172 L642 172 Q662 172 676.5 184.5 Q691 197 694 216 L700 258 Q702 282 687 299.5 Q672 317 648 317 L612 317 L647 444 ZM480 444 L447 317 L308 317 L343 444 L480 444 Z" /><glyph glyph-name="percent" unicode="%" d="M70 619 Q53 488 94 440.5 Q135 393 217 393 Q301 393 356 440.5 Q411 488 430 619 Q447 748 405.5 795.5 Q364 843 281 843 Q199 843 144 795.5 Q89 748 70 619 ZM721 831 Q694 831 675 807 L179 100 Q161 70 176 41 Q191 12 225 12 Q253 12 271 36 L768 743 Q787 773 772 802 Q757 831 721 831 ZM296 619 Q287 547 273 524 Q259 501 232 501 Q207 501 199.5 524 Q192 547 203 619 Q212 690 226 714 Q240 738 266 738 Q292 738 299.5 714 Q307 690 296 619 ZM516 226 Q498 94 539.5 47 Q581 0 663 0 Q746 0 801 47 Q856 94 875 226 Q893 355 851 402.5 Q809 450 726 450 Q644 450 589.5 402.5 Q535 355 516 226 ZM743 226 Q733 154 718.5 130.5 Q704 107 678 107 Q652 107 645 130.5 Q638 154 648 226 Q658 297 671.5 321 Q685 345 711 345 Q738 345 745.5 321 Q753 297 743 226 Z" /><glyph glyph-name="ampersand" unicode="&amp;" d="M725 269 Q696 178 625 107 L585 68 Q585 68 596 58 Q607 48 624.5 36.5 Q642 25 663 20 Q681 14 690 -2 Q699 -16 697 -35 L697 -38 Q693 -60 677 -73 Q655 -91 621.5 -91 Q588 -91 559 -84 Q537 -79 518 -69.5 Q499 -60 488 -50 L458 -24 L445 -32 Q392 -66 337 -82 Q277 -100 216 -100 Q152 -100 107 -84 Q66 -69 43 -41 Q-8 20 5 108 L5 113 Q10 223 197 332 L239 357 L212 398 Q164 471 179 574 Q189 647 253 698 Q320 750 441 750 Q553 750 594 709 Q632 669 620 591 L620 589 Q614 531 575 481 Q532 428 452 381 L409 357 L518 172 Q518 172 537.5 188.5 Q557 205 580.5 234.5 Q604 264 619 301 Q624 320 639 332 Q653 343 673 343 Q702 343 716 321 Q733 299 725 269 ZM253 25 Q277 25 321 45.5 Q365 66 392 82 L298 242 Q285 233 263 217 Q241 201 221.5 185 Q202 169 196 161 Q183 139 181 115 Q176 76 197 51 Q217 25 253 25 ZM335 562 Q332 511 374 452 Q432 484 456 511 Q479 538 483 570 Q495 652 424 652 Q349 652 335 562 Z" /><glyph glyph-name="quotesingle" unicode="&#39;" d="M50 630 L156 630 Q176 658 198.5 699 Q221 740 239 783 Q251 816 233 843 Q215 870 181 870 Q159 870 142.5 857 Q126 844 120 823 Q107 772 88 720 Q69 668 50 630 Z" /><glyph glyph-name="parenleft" unicode="(" d="M160 -100 L354 -100 Q243 142 276 350 Q301 553 486 800 L291 800 Q98 563 71 345 Q37 135 160 -100 Z" /><glyph glyph-name="parenright" unicode=")" d="M-29 -100 L165 -100 Q352 135 378 345 Q413 563 286 800 L91 800 Q207 553 175 350 Q149 142 -29 -100 Z" /><glyph glyph-name="asterisk" unicode="*" d="M65 644 Q47 628 47.5 607 Q48 586 65 571 Q83 557 103 560.5 Q123 564 135 583 L166 633 L179 595 Q187 573 208 565.5 Q229 558 250 571 L258 576 Q277 589 279.5 610 Q282 631 267 648 L238 680 L295 687 Q316 690 327.5 705.5 Q339 721 336 742 L335 744 Q330 768 310 778 Q290 788 267 778 L224 756 L238 798 Q244 822 230.5 841 Q217 860 193 860 L188 860 Q168 860 154 845.5 Q140 831 141 810 L144 756 L103 780 Q84 790 64.5 784 Q45 778 35 759 L32 752 Q22 729 33.5 709 Q45 689 69 685 L108 680 L65 644 Z" /><glyph glyph-name="plus" unicode="+" d="M331 248 Q350 248 364.5 260.5 Q379 273 382 293 L383 294 Q385 318 370 335.5 Q355 353 331 353 L244 353 L256 441 Q259 465 243.5 482.5 Q228 500 204 500 Q185 500 170.5 487.5 Q156 475 153 455 L138 353 L37 353 Q18 353 3.5 340.5 Q-11 328 -14 308 L-15 307 Q-17 283 -2 265.5 Q13 248 37 248 L124 248 L111 159 Q109 135 124 117.5 Q139 100 163 100 Q182 100 196.5 112.5 Q211 125 214 145 L229 248 L331 248 Z" /><glyph glyph-name="comma" unicode="," d="M-51 -100 L73 -100 Q97 -71 123.5 -26.5 Q150 18 171 65 Q185 100 165.5 130 Q146 160 110 160 Q64 160 45 111 Q28 56 1.5 -2 Q-25 -60 -51 -100 Z" /><glyph glyph-name="hyphen" unicode="-" d="M47 400 Q28 400 14 388 Q0 376 -3 357 Q-5 334 9.5 317 Q24 300 47 300 L159 300 Q178 300 192 312 Q206 324 209 343 Q211 366 196.5 383 Q182 400 159 400 L47 400 Z" /><glyph glyph-name="period" unicode="." d="M-15 75 Q-23 28 -13.5 14 Q-4 0 48 0 Q99 0 113.5 14 Q128 28 133 75 Q141 122 130.5 136 Q120 150 69 150 Q17 150 3.5 136 Q-10 122 -15 75 Z" /><glyph glyph-name="slash" unicode="/" d="M378 700 Q344 700 324 666 L-15 -12 Q-29 -44 -11.5 -72 Q6 -100 40 -100 Q74 -100 94 -66 L433 612 Q447 644 429.5 672 Q412 700 378 700 Z" /><glyph glyph-name="zero" unicode="0" d="M364 650 L840 650 L746 -10 Q743 -27 733 -42 Q731 -44 730 -46 Q720 -61 706 -72 Q703 -74 701 -76 Q686 -88 668 -95 Q650 -100 631 -100 Q630 -100 630 -100 L139 -100 Q139 -100 138 -100 Q118 -100 101 -95 Q99 -94 96 -93 Q81 -88 71 -77 Q59 -64 53 -47 Q53 -45 52 -43 Q46 -28 47 -10 L139 650 L339 650 L251 23 Q251 19 250 17 Q249 13 249 10.5 Q249 8 253 4 Q255 1 258 0 Q261 -1 265 -1 Q267 0 271 0 L526 0 Q529 0 531 -1 Q534 -1 537 0 Q540 1 544 4 Q548 8 549.5 10.5 Q551 13 551 17 Q551 19 551 23 L625 550 L350 550 L364 650 Z" /><glyph glyph-name="one" unicode="1" d="M581 650 L431 650 Q418 650 407 641 Q396 632 394 618 L293 -100 L452 -100 Q461 -100 469 -93 Q477 -86 479 -76 L581 650 Z" /><glyph glyph-name="two" unicode="2" d="M799 315 L847 650 L154 650 Q147 650 141.5 645 Q136 640 134 633 L123 555 L652 555 L623 355 Q621 342 613 335 Q604 327 592 327 L91 327 L47 13 Q40 -35 69 -67 Q96 -100 143 -100 L715 -100 Q727 -100 734.5 -93 Q742 -86 744 -75 L754 -5 L285 -5 Q271 -5 262 5 Q255 16 256 29 L284 224 L696 224 Q734 224 764 251 Q793 277 799 315 Z" /><glyph glyph-name="three" unicode="3" d="M-11 -30 L-21 -100 L592 -100 Q612 -100 631 -91 Q649 -84 664 -71 Q679 -58 689 -40 Q699 -23 702 -3 L789 614 Q790 629 780.5 639.5 Q771 650 758 650 L125 650 Q114 650 107 644 Q100 637 98 627 L87 545 L598 545 L569 345 L93 345 Q84 345 76 338 Q68 331 67 321 L54 233 L554 233 L525 29 Q523 15 512 5 Q501 -5 487 -5 L17 -5 Q7 -5 -2 -12 Q-10 -19 -11 -30 Z" /><glyph glyph-name="four" unicode="4" d="M136 102 L567 102 L539 -100 L697 -100 Q707 -100 714.5 -94 Q722 -88 723 -78 L825 650 L666 650 Q657 650 650 644 Q643 638 641 628 L580 198 L268 198 Q253 198 245 207 Q237 217 239 232 L297 650 L135 650 Q127 650 120.5 645 Q114 640 113 631 L52 200 Q47 160 71 131 Q96 102 136 102 Z" /><glyph glyph-name="five" unicode="5" d="M826 563 Q825 557 820.5 553.5 Q816 550 810 550 L324 550 L338 650 L838 650 L826 563 ZM743 -24 Q741 -39 733 -54 Q733 -55 733 -55 Q728 -66 718 -76 Q706 -85 692 -92 Q673 -100 652 -100 L32 -100 L43 -23 Q45 -13 52 -6.5 Q59 0 69 0 L543 0 Q557 0 565 10 Q576 20 577 34 L603 225 L78 225 L136 639 Q137 643 140.5 646.5 Q144 650 149 650 L313 650 L267 324 L792 324 L743 -24 Z" /><glyph glyph-name="six" unicode="6" d="M763 -3 L813 349 Q814 360 807 369 Q800 378 788 378 L290 378 L315 555 L818 555 Q828 555 835.5 561.5 Q843 568 845 579 L855 650 L163 650 Q155 650 150 645 Q145 640 143 633 L56 13 Q49 -34 78 -67 Q106 -100 153 -100 L653 -100 Q670 -100 688 -94 Q708 -85 725 -71 Q741 -57 752 -37 Q760 -21 763 -3 ZM546 -19 L268 -19 Q253 -19 245 -10 Q237 1 238 14 L276 282 L623 282 L584 14 Q583 1 571 -10 Q560 -19 546 -19 Z" /><glyph glyph-name="seven" unicode="7" d="M491 -100 L671 -100 Q684 -100 693 -92 Q702 -84 703 -73 L812 650 L81 650 Q72 650 64.5 644 Q57 638 55 629 L43 548 L588 548 L491 -100 Z" /><glyph glyph-name="eight" unicode="8" d="M139 650 L839 650 L746 -10 Q743 -30 734 -46 Q723 -63 709 -76 Q694 -88 676 -96 Q658 -100 638 -100 Q638 -100 637 -100 L124 -100 Q124 -100 123 -100 Q103 -100 87 -96 Q71 -89 60 -77 Q50 -64 45 -47 Q41 -31 45 -14 Q46 -11 46 -10 L139 650 ZM572 -3 L608 250 L258 250 L222 -3 Q221 -8 222.5 -11.5 Q224 -15 227 -18 Q228 -19 229 -21 Q232 -24 237 -25 Q242 -26 247 -25 Q251 -25 253 -25 L530 -25 Q532 -25 535 -25 Q540 -26 545.5 -25 Q551 -24 557 -21 Q559 -18 562 -17 Q566 -14 568.5 -11 Q571 -8 572 -3 ZM618 325 L653 575 L303 575 L268 325 L618 325 Z" /><glyph glyph-name="nine" unicode="9" d="M79 187 Q105 152 149 152 L580 152 L562 28 Q561 14 549 5 Q537 -5 524 -5 L49 -5 Q43 -5 39 -10 Q34 -14 33 -20 L22 -100 L628 -100 Q649 -100 667 -92 Q686 -84 701 -71 Q716 -58 725 -41 Q736 -24 739 -4 L824 608 Q826 625 815 637.5 Q804 650 788 650 L121 650 L66 249 Q61 215 79 187 ZM258 257 Q249 267 252 282 L290 555 L636 555 L594 248 L281 248 Q266 248 258 257 Z" /><glyph glyph-name="colon" unicode=":" d="M53 321 Q44 273 54.5 258 Q65 243 119 243 Q172 243 187 258 Q202 273 207 321 Q216 370 205 385 Q194 400 141 400 Q87 400 72.5 385 Q58 370 53 321 ZM19 78 Q10 30 20.5 15 Q31 0 85 0 Q138 0 153 15 Q168 30 173 78 Q182 127 171 142 Q160 157 107 157 Q53 157 38.5 142 Q24 127 19 78 Z" /><glyph glyph-name="semicolon" unicode=";" d="M10 -12 Q-4 -44 14 -72 Q32 -100 66 -100 Q96 -100 116 -74 Q162 -7 195 72 Q203 96 190 115.5 Q177 135 153 135 L95 135 Q80 135 68 125.5 Q56 116 52 101 Q37 47 10 -12 ZM71 320 Q62 271 72 256 Q82 241 137 241 Q191 241 206 256 Q221 271 226 320 Q235 370 224 385 Q213 400 159 400 Q105 400 90.5 385 Q76 370 71 320 Z" /><glyph glyph-name="less" unicode="&lt;" d="M528 451 L547 586 L76 404 Q8 376 -4 304 Q-12 212 71 170 L465 0 L483 135 L188 254 Q162 266 162.5 291.5 Q163 317 189 329 L528 451 Z" /><glyph glyph-name="equal" unicode="=" d="M124 500 Q98 500 79 483.5 Q60 467 55 441 Q52 409 72 385.5 Q92 362 124 362 L507 362 Q533 362 552 379 Q571 396 575 422 Q579 454 559 477 Q539 500 507 500 L124 500 ZM87 238 Q61 238 42 221 Q23 204 19 178 Q15 146 35 123 Q55 100 87 100 L470 100 Q496 100 515 116.5 Q534 133 539 159 Q542 191 522 214.5 Q502 238 470 238 L87 238 Z" /><glyph glyph-name="greater" unicode="&gt;" d="M574 282 Q581 374 499 416 L106 586 L87 451 L382 332 Q408 320 407.5 294.5 Q407 269 381 257 L42 135 L24 0 L494 182 Q561 210 574 282 Z" /><glyph glyph-name="question" unicode="?" d="M224 700 Q171 700 117 695 Q96 692 81 678 Q66 663 63 642 Q60 612 78 592 Q96 571 127 571 Q136 571 144 571 Q159 571 174 572 Q231 575 257 565 Q270 560 283 540 Q296 520 294 479 Q291 450 266 424 Q241 398 208 373 Q165 340 138 305 Q128 289 117.5 255 Q107 221 103 195 Q103 187 107.5 181.5 Q112 176 120 176 L226 176 Q232 176 236.5 179.5 Q241 183 242 188 Q246 203 251 219 Q256 235 260 242 Q271 260 295 282 Q317 300 359 330 Q387 350 401.5 370 Q416 390 426 410 Q428 412 429 415 Q453 458 460 521 Q469 577 460 614 Q452 645 430 661 Q413 675 365.5 687.5 Q318 700 224 700 ZM158 77 Q108 77 81.5 52.5 Q55 28 50 -15 L50 -17 Q34 -100 124 -100 Q174 -100 201 -75 Q228 -50 232 -8 L232 -6 Q249 77 158 77 Z" /><glyph glyph-name="at" unicode="@" d="M41 239 Q19 70 109.5 -15 Q200 -100 385 -100 Q451 -100 520 -85 Q556 -75 562 -39 Q565 -12 547 6.5 Q529 25 502 22 Q460 17 403 17 Q279 17 216.5 68 Q154 119 170 239 Q194 385 282.5 458.5 Q371 532 475 532 Q697 532 667 335 Q644 191 598 191 Q585 191 577 200 Q569 209 572 233 Q575 253 589 294 L641 458 L554 460 Q527 459 517 434 L512 419 Q509 444 495 457.5 Q481 471 443 471 Q386 471 319 411 Q252 351 232 235 Q223 167 251 125 Q279 83 343 83 Q386 83 414 100 Q442 117 469 144 Q496 83 574 83 Q656 83 715.5 157.5 Q775 232 794 353 Q805 429 779.5 496 Q754 563 684.5 606.5 Q615 650 491 650 Q338 650 206 543 Q74 436 41 239 ZM461 277 Q438 192 386 192 Q365 192 360.5 208 Q356 224 360 244 Q367 290 391.5 325 Q416 360 441 360 Q464 360 469.5 348.5 Q475 337 471 317 Q469 301 461 277 Z" /><glyph glyph-name="a" unicode="a" d="M608 345 L545 -100 L467 -100 Q442 -100 426 -81.5 Q410 -63 414 -29 L416 -14 Q373 -54 322 -77 Q271 -99 212 -99 Q164 -99 125 -87 Q87 -74 61 -49 Q35 -25 23 12 Q12 49 19 98 Q27 151 53 190 Q79 229 124 255 Q168 280 231 292 Q294 304 375 304 L434 304 L439 341 Q443 370 441 391 Q438 413 427 427 Q415 441 394 448 Q373 455 341 455 Q298 455 263 445 Q228 436 200 424 Q200 424 200 424 Q200 424 200 424 Q182 417 166 425 Q150 433 145 452 L131 520 Q142 529 164 539 Q190 551 223 561 Q256 572 295 578 Q334 585 374 585 Q445 585 494 571 Q543 557 571 528 Q600 499 608 453 Q617 408 608 345 ZM405 94 L419 197 L354 197 Q312 197 282 191 Q252 185 232 173 Q212 160 201 143 Q190 126 187 103 Q182 65 203 43 Q224 22 267 22 Q303 22 336 40 Q368 58 405 94 Z" /><glyph glyph-name="A" unicode="a" d="M230 80 L180 -29 Q140 -100 68 -100 L-55 -100 Q-55 -100 -13 -16.5 Q29 67 90.5 189.5 Q152 312 215 437.5 Q278 563 324 654 Q389 765 503 765 L599 765 Q600 761 620 676 Q640 591 669.5 465 Q699 339 729 212 Q759 85 780 -3 Q788 -41 764.5 -70.5 Q741 -100 703 -100 L600 -100 L566 80 L230 80 ZM470 605 L290 221 L543 221 L470 605 Z" /><glyph glyph-name="b" unicode="b" d="M731 377 Q736 316 727 248 Q715 167 689 102 Q662 37 622 -9 Q582 -55 530 -79 Q477 -104 415 -104 Q385 -104 359 -98 Q333 -92 310 -79 Q288 -66 267 -46 Q246 -27 226 1 L218 -47 Q214 -72 195.5 -87.5 Q177 -103 153 -103 L62 -103 L183 733 Q191 780 225.5 810.5 Q260 841 307 841 L370 841 L321 497 Q347 520 373 536 Q398 553 423 563 Q448 574 473 578 Q498 583 525 583 Q593 583 636 556 Q680 529 703 484 Q726 438 731 377 ZM547 236 Q552 275 552 311 Q551 347 541 375 Q530 403 510 420 Q489 436 454 436 Q437 436 420 432 Q403 427 384 415 Q365 404 344 385 Q323 367 299 339 L270 137 Q300 91 330 67 Q359 42 395 42 Q429 42 455 59 Q480 77 499 104 Q519 131 530 166 Q542 201 547 236 Z" /><glyph glyph-name="B" unicode="b" d="M51 -100 L157 686 Q163 721 189 744 Q215 767 250 767 L415 767 Q519 767 570 749.5 Q621 732 651 701 Q679 676 696.5 631.5 Q714 587 699 516 Q687 463 654.5 423 Q622 383 577 375 Q637 354 687.5 280.5 Q738 207 710 76 Q674 -42 594 -71 Q514 -100 465 -100 Q454 -100 391 -100 Q328 -100 250 -100 Q172 -100 114.5 -100 Q57 -100 51 -100 ZM331 646 L299 417 L398 417 Q436 417 460 426 Q484 435 502 451 Q519 467 530 489 Q540 510 543 534 Q547 561 542 582 Q537 603 523 617 Q508 631 485 638 Q461 646 420 646 L331 646 ZM280 287 L245 37 L373 37 Q410 37 436 44 Q463 52 483 67 Q504 83 518 105 Q531 128 535 157 Q540 188 533 212 Q526 236 509 253 Q492 269 463 278 Q434 287 385 287 L280 287 Z" /><glyph glyph-name="c" unicode="c" d="M657 558 Q561 583 477 583 Q286 583 165 477 Q45 371 45 205 Q45 70 134 -14 Q223 -98 368 -98 Q483 -98 601 -45 Q605 2 572 29 Q539 56 494 44 Q434 25 380 25 Q293 25 242 73 Q191 121 191 202 Q191 306 265 383 Q339 460 474 460 Q513 460 552 454 Q588 450 615.5 469.5 Q643 489 651 524 L657 558 Z" /><glyph glyph-name="C" unicode="c" d="M825 738 Q702 769 595 769 Q351 769 197 634 Q43 499 43 288 Q43 115 157 8 Q271 -100 455 -100 Q602 -100 753 -32 Q759 28 716.5 62.5 Q674 97 616 81 Q539 57 471 57 Q360 57 295 118 Q229 180 229 284 Q229 416 324 515 Q419 613 591 613 Q641 613 691 606 Q736 600 771.5 625 Q807 650 817 695 L825 738 Z" /><glyph glyph-name="D" unicode="d" d="M158 670 L51 -100 L497 -100 Q671 -100 788 26 Q906 153 906 344 Q906 530 791 648 Q676 765 459 765 L267 765 Q226 765 195.5 738.5 Q165 712 158 670 ZM335 620 L424 620 Q558 620 637 544 Q716 468 716 346 Q716 214 639 129 Q563 44 428 44 L255 44 L335 620 Z" /><glyph glyph-name="d" unicode="d" d="M533 501 L564 726 Q572 776 609.5 808.5 Q647 841 697 841 L750 841 L619 -96 L534 -96 Q505 -96 486 -74.5 Q467 -53 470 -23 L474 6 Q462 -5 452 -15 Q419 -51 379 -73 Q324 -100 261 -100 Q192 -100 148 -74 Q104 -47 80 -1 Q56 44 51 105 Q46 166 56 233 Q67 314 93 378 Q120 443 159 488 Q199 534 252 558 Q305 583 370 583 Q421 583 459 562 Q498 541 533 501 ZM482 142 L511 343 Q480 389 450 414 Q420 438 383 438 Q350 438 324 421 Q297 405 279 377 Q260 349 248 315 Q236 281 231 245 Q226 206 227 171 Q228 135 238 106 Q248 78 269 61 Q289 44 325 44 Q342 44 360 49 Q377 54 396 66 Q415 77 436 96 Q457 115 482 142 Z" /><glyph glyph-name="e" unicode="e" d="M445 37 Q454 38 470 43 Q501 50 527.5 37 Q554 24 567 -5 L584 -43 Q577 -47 564 -53 Q563 -53 562 -53 Q549 -58 527 -66.5 Q505 -75 488 -79 Q457 -87 416 -93 Q376 -99 332 -99 Q251 -99 193 -78 Q135 -58 100 -17 Q65 25 54 88 Q43 151 55 236 Q66 316 97 381 Q127 446 173 491 Q219 536 280 560 Q341 583 413 583 Q488 583 539 561 Q590 539 619 499 Q648 459 657 405 Q665 351 656 287 L653 260 Q648 229 632 214 Q616 199 592 199 L224 199 Q218 160 223 129 Q228 97 244 75 Q261 53 291 42 Q321 30 365 30 Q410 30 445 37 ZM257 369 Q245 341 239 309 L494 309 Q506 381 481 422 Q456 463 391 463 Q359 463 333 451 Q307 438 289 418 Q270 397 257 369 Z" /><glyph glyph-name="E" unicode="e" d="M49 -101 L155 647 Q163 699 201.5 732.5 Q240 766 292 766 L813 766 L804 703 Q800 677 781 660.5 Q762 644 737 644 L342 644 L311 420 L714 420 L694 278 L291 278 L254 40 L711 40 L706 -9 Q700 -49 671 -75 Q642 -101 603 -101 L49 -101 Z" /><glyph glyph-name="f" unicode="f" d="M551 828 Q554 826 557 825 Q558 824 558 824 L539 754 Q533 732 514 719.5 Q495 707 470 707 Q470 707 470 707 Q450 707 435 701 Q420 695 409 683 Q398 671 391 651 Q383 632 379 603 L378 587 L495 587 Q496 587 496.5 586 Q497 585 498 585 L483 504 Q478 481 459.5 466.5 Q441 452 417 452 L357 452 L292 50 Q280 -17 227 -59 Q174 -101 103 -101 L88 -101 L176 452 L90 452 L107 536 Q112 559 130.5 573 Q149 587 174 587 L197 587 L198 598 Q207 659 227 704 Q247 750 279 780 Q311 811 356 826 Q402 841 460 841 Q488 841 512 837 Q537 833 551 828 Z" /><glyph glyph-name="F" unicode="f" d="M293 766 L807 766 L799 684 Q794 659 775.5 642.5 Q757 626 731 626 L343 626 L312 421 L709 421 L689 278 L292 278 L236 -100 L49 -100 L156 647 Q164 699 202.5 732.5 Q241 766 293 766 Z" /><glyph glyph-name="G" unicode="g" d="M666 753 Q727 735 765.5 713.5 Q804 692 804 692 L786 647 Q771 613 739 600 Q707 587 673 600 Q651 609 632 614 Q590 626 533 626 Q472 626 420 605 Q368 584 328 545 Q287 507 261 452 Q234 398 225 333 Q215 261 226 206 Q238 151 267 114 Q296 77 342 59 Q388 40 446 40 Q474 40 503 46 Q532 53 558 66 L592 260 L433 260 L449 336 Q454 359 472.5 374 Q491 389 515 389 L734 389 Q744 389 752 386 Q760 382 765 375 Q770 368 772 358 Q774 348 772 335 L715 -39 Q715 -39 703.5 -43.5 Q692 -48 674 -54.5 Q656 -61 637 -68 Q620 -74 596.5 -80 Q573 -86 554 -89 Q520 -96 486 -99 Q451 -102 417 -102 Q316 -102 241 -73 Q166 -44 118 10 Q71 65 53 144 Q35 223 49 323 Q63 426 106 508 Q148 590 214 647 Q273 699 349 729 Q351 730 352 730 Q358 733 364 735 Q434 765 533 765 Q561 765 599 762.5 Q637 760 666 753 Z" /><glyph glyph-name="g" unicode="g" d="M534 568 L746 568 L737 502 Q731 468 706.5 446.5 Q682 425 649 425 Q663 407 667 384 Q671 361 667 336 Q659 277 633 231 Q607 185 566 154 Q524 123 470 106 Q416 90 353 90 Q320 90 292 98 Q264 106 249 116 Q239 107 230 93 Q222 81 219 67 Q215 49 226 34 Q242 13 284 11 L448 5 Q505 3 548 -11 Q591 -25 618 -50 Q645 -75 656 -111 Q667 -146 661 -192 Q654 -242 626 -286 Q598 -330 549 -362 Q501 -395 432 -414 Q363 -433 275 -433 Q189 -433 130 -419 Q71 -406 35 -381 Q0 -357 -13 -324 Q-26 -290 -20 -250 Q-17 -225 -7 -202 Q2 -180 18 -159 Q33 -138 54 -119 Q75 -100 100 -83 Q70 -66 57 -36 Q43 -6 48 30 Q55 74 80 111 Q106 147 142 177 Q120 203 109 240 Q98 277 106 333 Q114 392 142 438 Q169 484 210 517 Q252 549 306 566 Q359 583 421 583 Q453 583 482 579 Q510 575 534 568 ZM242 -126 Q221 -140 207 -154 Q194 -167 185 -179 Q176 -191 172 -202 Q168 -214 167 -226 Q161 -264 197 -283 Q232 -303 302 -303 Q345 -303 375 -294 Q406 -285 426 -271 Q446 -257 456 -239 Q466 -221 469 -202 Q474 -168 449 -149 Q425 -131 377 -130 L242 -126 ZM500 336 Q508 391 482 421 Q456 451 401 451 Q373 451 350 442 Q328 432 311 416 Q295 400 285 378 Q276 357 272 333 Q265 282 291 252 Q317 222 371 222 Q399 222 422 231 Q444 240 461 256 Q477 272 487 293 Q497 314 500 336 Z" /><glyph glyph-name="H" unicode="h" d="M683 674 Q690 714 718.5 739 Q747 764 787 765 Q811 765 832 765 Q853 765 866.5 765 Q880 765 880 765 Q880 765 880 765 L765 -99 Q764 -99 736.5 -99 Q709 -99 673 -99.5 Q637 -100 609 -100 Q581 -100 581 -100 Q581 -100 581 -100 L627 270 L288 270 L236 -100 Q236 -100 208.5 -100 Q181 -100 145 -100 Q109 -100 82 -100 Q55 -100 52 -100 Q52 -100 52 -99 Q52 -99 52 -99 Q52 -99 65 -6 Q78 87 96.5 220 Q115 353 133.5 483 Q152 613 163 694 Q168 725 191 745 Q214 765 245 765 L357 765 Q357 765 357 765 Q357 765 357 765 L310 429 L649 429 L683 674 Z" /><glyph glyph-name="h" unicode="h" d="M298 327 L238 -101 L67 -101 L180 726 Q211 841 301 841 L367 841 L319 482 Q370 526 418 547 Q467 568 516 568 Q578 568 618 548 Q657 528 678 493 Q699 457 704 410 Q709 363 700 296 L645 -98 L602 -98 Q551 -98 519 -60.5 Q487 -23 492 28 L526 270 Q532 314 529 339 Q526 365 517 382 Q507 400 489 410 Q471 420 445 420 Q413 420 376 396 Q340 373 298 327 Z" /><glyph glyph-name="i" unicode="i" d="M241 764 L353 764 L340 671 Q336 651 322 638.5 Q308 626 289 626 L168 626 L180 712 Q183 735 200.5 749.5 Q218 764 241 764 ZM145 499 Q150 527 170.5 545 Q191 563 219 563 L320 563 L248 40 Q239 -23 193 -62.5 Q147 -102 86 -102 L63 -102 L145 499 Z" /><glyph glyph-name="I" unicode="i" d="M49 -101 L160 686 Q165 721 191.5 743.5 Q218 766 253 766 L358 766 Q358 766 358 766 Q358 766 358 766 L249 -7 Q243 -48 212.5 -74.5 Q182 -101 141 -101 L49 -101 Z" /><glyph glyph-name="J" unicode="j" d="M224 171 L306 686 Q312 721 338 743.5 Q364 766 399 766 L484 765 L400 163 Q391 102 373 54 Q355 5 323 -29 Q292 -63 246 -81 Q200 -99 136 -99 Q115 -99 95 -96 Q76 -93 60 -88 Q44 -83 32 -77 Q30 -76 22.5 -72 Q15 -68 6 -63 Q-3 -58 -10 -54 Q-16 -50 -24.5 -44 Q-33 -38 -41 -32.5 Q-49 -27 -54.5 -23 Q-60 -19 -60 -19 L-20 41 Q-2 66 26 74.5 Q54 83 82 72 Q109 60 131 58 Q149 58 164 63 Q179 68 190 81 Q201 94 209 115 Q212 125 215.5 137.5 Q219 150 224 171 Z" /><glyph glyph-name="j" unicode="j" d="M264 764 L385 764 L372 675 Q368 649 348.5 632 Q329 615 303 615 L185 615 L198 707 Q202 732 220.5 748 Q239 764 264 764 ZM141 437 Q149 489 187 522 Q225 555 277 555 L343 555 L250 -157 Q239 -235 219 -284 Q198 -332 167 -365 Q135 -398 92 -415 Q48 -432 -7 -432 Q-37 -432 -58 -428 Q-74 -425 -104.5 -415.5 Q-135 -406 -159 -391 Q-144 -364 -129 -328 Q-100 -272 -37 -277 Q-31 -277 -28 -277 Q-28 -277 -28 -277 Q-9 -277 6 -271 Q21 -265 32 -252 Q43 -239 50 -219 Q58 -198 64 -154 L141 437 Z" /><glyph glyph-name="k" unicode="k" d="M736 574 Q733 571 692 529 Q651 487 597 432 Q543 377 501 334.5 Q459 292 459 292 L656 -100 Q656 -100 656 -100 Q656 -100 656 -100 L538 -100 Q464 -100 421 -28 L283 254 L245 -18 Q239 -54 212.5 -77 Q186 -100 150 -100 L63 -100 L185 773 Q190 802 211 820.5 Q232 839 261 839 L365 839 L288 295 L477 504 Q544 574 634 574 L736 574 Z" /><glyph glyph-name="K" unicode="k" d="M305 372 L617 748 Q630 763 649 763 L846 763 L490 368 L746 -100 L515 -100 Q515 -100 515 -100 L300 334 L239 -100 Q239 -100 238 -100 Q238 -100 238 -100 L53 -100 Q53 -100 53 -100 Q53 -99 53 -99 Q53 -99 71.5 32.5 Q90 164 114 332 Q138 500 156 628 Q174 756 175 763 L295 763 Q321 763 337.5 744 Q354 725 351 699 Q343 641 332 565.5 Q321 490 313 431 Q305 372 305 372 Z" /><glyph glyph-name="l" unicode="l" d="M63 -97 L185 769 Q191 801 214 821 Q237 841 268 841 L362 841 Q362 841 362 841 Q362 841 362 841 L229 -97 L63 -97 Z" /><glyph glyph-name="L" unicode="l" d="M249 47 L600 47 L568 -101 L103 -101 Q80 -101 67 -87 Q54 -74 58 -44 L161 697 Q166 728 188.5 748 Q211 768 242 768 L349 768 L249 47 Z" /><glyph glyph-name="m" unicode="m" d="M293 341 L241 -9 Q235 -49 205.5 -74.5 Q176 -100 136 -100 L55 -100 L135 465 Q144 516 181.5 549 Q219 582 270 582 L299 582 L286 476 Q345 531 399 558 Q453 586 508 586 Q546 586 575 578 Q604 570 626 555 Q647 540 661 520 Q676 499 684 474 Q715 503 745 524 Q774 546 802 559 Q829 573 856 579 Q883 586 910 586 Q971 586 1010 565 Q1049 544 1069 509 Q1090 474 1094 426 Q1099 379 1091 326 L1029 -100 L857 -100 L915 297 Q919 328 917 354 Q915 379 905 397 Q896 415 879 425 Q862 435 837 435 Q806 435 771 411 Q736 387 693 341 L628 -100 L456 -100 L514 297 Q519 328 516 354 Q514 379 505 397 Q496 415 479 425 Q462 435 437 435 Q405 435 370 411 Q335 387 293 341 Z" /><glyph glyph-name="M" unicode="m" d="M1104 767 L954 767 Q912 767 887 727 L616 221 L476 767 L313 767 Q278 767 262 730 L-9 -100 L110 -100 Q169 -100 197 -38 L373 502 L528 -100 L628 -100 L937 486 L962 -12 Q964 -50 991 -75 Q1018 -100 1055 -100 L1145 -100 L1104 767 Z" /><glyph glyph-name="N" unicode="n" d="M690 129 L792 762 L981 762 L844 -99 L599 -99 L332 585 L242 -99 L56 -99 L170 766 L344 766 Q436 766 483 672 Q519 580 566 457 Q613 334 649 237.5 Q685 141 690 129 Z" /><glyph glyph-name="n" unicode="n" d="M293 342 L242 -25 Q236 -58 212 -79 Q188 -100 155 -100 L58 -100 L141 496 Q147 535 175.5 559.5 Q204 584 242 584 L301 584 L287 477 Q345 532 402 560 Q458 587 515 587 Q578 587 618 567 Q658 546 679 511 Q701 475 706 428 Q711 380 702 314 L655 -100 L482 -100 L525 285 Q531 329 528 355 Q525 380 515 398 Q506 417 487 427 Q469 437 443 437 Q410 437 373 413 Q336 388 293 342 Z" /><glyph glyph-name="O" unicode="o" d="M537 764 Q324 764 184 629 Q43 495 43 292 Q43 122 163 11 Q283 -99 467 -99 Q679 -99 815 35 Q951 168 951 380 Q951 550 836 657 Q720 764 537 764 ZM468 57 Q362 57 295 125 Q228 193 228 300 Q228 427 316 518 Q404 609 525 609 Q630 609 698 541 Q767 473 767 368 Q767 238 680 147 Q593 57 468 57 Z" /><glyph glyph-name="o" unicode="o" d="M407 585 Q259 585 156 479 Q54 373 48 212 Q42 78 122 -9 Q202 -96 330 -96 Q478 -96 577 9 Q676 114 683 282 Q688 416 611 500 Q534 585 407 585 ZM339 51 Q274 51 234 98 Q195 146 198 222 Q201 311 258 374 Q315 438 390 438 Q455 438 496 390 Q536 343 533 270 Q529 178 473 114 Q416 51 339 51 Z" /><glyph glyph-name="P" unicode="p" d="M441 764 Q562 764 625.5 727.5 Q689 691 714.5 641 Q740 591 743 548 Q746 505 743 490 Q738 453 728.5 426.5 Q719 400 703 372 Q671 313 621 273 Q570 233 502 212 Q434 191 345 191 L271 191 L249 25 Q241 -30 201 -65.5 Q161 -101 107 -101 L52 -101 L155 660 Q162 706 195.5 735 Q229 764 274 764 L441 764 ZM551 477 Q558 524 545 555 Q533 586 511 600 Q489 615 463 619 Q437 623 408 623 L331 623 L291 332 L376 333 Q420 333 451 345 Q482 357 504 378 Q526 399 539 429 Q544 440 546.5 450 Q549 460 551 477 Z" /><glyph glyph-name="p" unicode="p" d="M738 382 Q743 321 734 252 Q722 171 696 106 Q669 41 629 -5 Q589 -50 536 -75 Q482 -99 418 -99 Q391 -99 370 -94 Q348 -89 329 -79 Q310 -68 291 -52 Q273 -37 254 -16 L204 -375 Q200 -401 181.5 -417 Q163 -433 137 -433 L24 -433 L154 509 Q159 540 182.5 563.5 Q206 587 236 587 L328 587 L313 490 Q325 501 332 506.5 Q339 512 348 519 Q352 521 356 524 Q384 545 413 559 Q442 573 471 580 Q500 587 533 587 Q600 587 643 560 Q687 534 710 488 Q733 443 738 382 ZM553 240 Q558 279 558 315 Q557 351 547 379 Q537 407 516 423 Q495 440 461 440 Q444 440 427 435 Q409 430 390 418 Q371 407 350 388 Q329 370 305 342 L276 142 Q306 96 336 71 Q365 47 400 47 Q434 47 460 64 Q486 81 505 108 Q524 136 536 171 Q548 205 553 240 Z" /><glyph glyph-name="Q" unicode="q" d="M823 77 L929 -41 L905 -66 Q859 -105 803 -102 Q747 -99 705 -55 L683 -32 Q591 -83 455 -87 Q276 -84 160 22 Q43 130 43 298 Q43 498 180 631 Q317 764 524 764 Q701 764 814 658 Q926 552 926 386 Q926 201 823 77 ZM288 133 Q353 66 456 66 Q577 66 662 156 Q747 245 747 374 Q747 476 680 544 Q614 611 512 611 Q394 611 308 521 Q223 431 223 307 Q223 200 288 133 Z" /><glyph glyph-name="q" unicode="q" d="M566 518 Q571 548 593.5 567.5 Q616 587 646 587 L722 587 L580 -433 L551 -433 Q495 -433 459 -391.5 Q423 -350 429 -292 L467 -13 Q439 -36 414 -52 Q388 -69 364 -80 Q339 -90 314 -95 Q289 -100 261 -100 Q194 -100 151 -73 Q108 -46 85 0 Q61 45 56 107 Q51 168 61 235 Q72 316 99 381 Q126 446 166 492 Q207 537 260 562 Q313 587 379 587 Q404 587 427 581 Q449 576 471 564 Q492 551 514 531 Q536 511 562 481 L566 518 ZM489 144 L518 346 Q487 392 457 417 Q427 441 390 441 Q356 441 330 424 Q303 408 285 380 Q266 352 254 317 Q242 283 237 247 Q232 209 233 172 Q234 136 244 108 Q254 80 275 63 Q295 45 331 45 Q349 45 366 51 Q383 56 402 67 Q421 79 443 98 Q464 116 489 144 Z" /><glyph glyph-name="r" unicode="r" d="M480 584 Q480 584 481 584 Q488 584 509.5 579 Q531 574 566 557 Q558 542 546.5 518 Q535 494 523 469 Q511 444 503 426.5 Q495 409 495 409 Q495 409 489.5 411.5 Q484 414 476.5 416.5 Q469 419 461 421 Q450 424 431 423.5 Q412 423 398 418 Q383 412 366 400 Q349 387 329 367 Q309 346 286 316 L244 17 Q236 -34 198.5 -66.5 Q161 -99 111 -99 L56 -99 L138 488 Q144 523 169.5 545.5 Q195 568 230 568 L296 568 L282 470 Q311 504 335 527 Q360 549 381 562 Q402 575 422 580 Q442 585 461 585 Q470 585 480 584 Z" /><glyph glyph-name="R" unicode="r" d="M48 -100 L152 652 Q160 702 196.5 734 Q233 766 283 766 L583 766 Q645 766 681 745.5 Q717 725 730 708 Q756 677 767 635 Q777 593 769 539 Q763 493 746 455 Q729 417 702 387 Q675 358 639 336 Q603 314 558 300 Q577 290 594 276 Q610 262 623 242 Q636 222 646 196 Q657 170 666 138 L722 -56 Q726 -73 716 -86.5 Q706 -100 689 -100 L527 -100 L474 106 Q464 141 453 167 Q443 194 428 212 Q413 230 392 240 Q371 249 341 249 L283 249 L234 -100 L48 -100 ZM339 647 L303 388 L397 388 Q437 388 468 398 Q499 407 521 424 Q544 442 557 466 Q570 490 574 520 Q581 565 565 596 Q548 627 504 640 Q490 643 472 645 Q454 647 423 647 L339 647 Z" /><glyph glyph-name="S" unicode="s" d="M544 318 Q565 291 576 254 Q586 217 579 166 Q569 101 537 51 Q505 1 458 -32 Q410 -65 351 -82 Q291 -99 226 -99 Q182 -99 146 -92 Q109 -85 81 -75 Q54 -65 36 -54 Q19 -43 12 -35 L26 -2 Q43 36 78 55 Q113 74 152 62 Q158 60 162 59 Q197 48 245 48 Q276 48 302 56 Q328 63 348 77 Q367 90 379 110 Q391 130 395 155 Q399 183 386 203 Q373 224 350 240 Q327 255 297 269 Q267 283 235 299 Q203 314 174 334 Q145 353 123 381 Q102 408 92 446 Q81 483 89 535 Q98 590 128 631 Q158 676 200 706 Q243 736 297 751 Q352 766 410 766 Q440 766 470 761 Q499 757 524 749 Q549 741 568 732 Q575 728 582.5 724 Q590 720 595 716.5 Q600 713 600 713 L576 661 Q540 592 457 620 Q457 620 456 620 Q425 630 394 634 Q364 634 340 626 Q320 619 306 608 Q290 596 280 579 Q271 563 268 544 Q264 516 277 496 Q289 475 313 460 Q337 444 367 430 Q398 416 430 401 Q462 385 492 365 Q522 346 544 318 Z" /><glyph glyph-name="s" unicode="s" d="M446 244 Q464 221 473 189 Q482 158 475 116 Q468 62 442 21 Q417 -18 380 -46 Q342 -73 296 -87 Q249 -100 199 -100 Q165 -100 136 -94 Q108 -89 87 -81 Q64 -73 50 -63 Q34 -54 27 -44 L20 -34 L35 1 Q50 35 81 53 Q114 71 150 60 L153 59 Q156 58 159 57 Q181 51 212 51 Q232 51 249 55 Q265 60 277 68 Q286 75 293 86 Q299 98 302 113 Q304 126 298 135 Q290 147 277 157 Q263 167 242 177 Q219 187 196 200 Q172 211 149 227 Q125 243 108 267 Q90 291 82 323 Q73 354 78 397 Q87 444 111 478 Q134 514 169 539 Q203 563 246 575 Q314 594 380 583 Q402 580 422 574 Q442 567 457 560 L458 559 Q463 556 468 553 Q474 549 482 545 L497 535 L472 480 Q463 459 437 441.5 Q411 424 360 439 Q340 445 320 448 Q302 448 289 443 Q277 440 270 434 Q261 427 257 418 Q251 408 249 398 Q248 385 253 375 Q260 364 273 355 Q290 343 310 334 Q334 323 356 312 Q381 300 404 284 Q428 267 446 244 Z" /><glyph glyph-name="t" unicode="t" d="M367 587 L500 587 L487 514 Q482 483 459 464 Q436 445 405 444 L347 444 L305 151 Q295 97 307 70 Q318 53 336 49 Q354 45 373 48 Q397 50 416 37.5 Q435 25 442 2 L461 -59 Q449 -65 430 -72 Q411 -79 394.5 -84.5 Q378 -90 374 -91 Q357 -94 337 -97 Q318 -99 298 -99 Q246 -99 209 -85 Q173 -72 151 -44 Q130 -17 124 25 Q118 67 126 124 L171 444 L62 444 L76 532 Q80 556 97.5 571.5 Q115 587 139 587 L191 587 L201 661 Q205 690 225.5 708 Q246 726 274 726 L384 726 L367 587 Z" /><glyph glyph-name="T" unicode="t" d="M43 634 L49 662 Q58 706 91.5 734 Q125 762 169 762 L755 762 L749 725 Q742 685 712.5 659.5 Q683 634 643 634 L486 634 L402 36 Q393 -24 349 -62 Q305 -100 246 -100 L197 -100 L300 634 L43 634 Z" /><glyph glyph-name="u" unicode="u" d="M537 467 Q545 519 583 552.5 Q621 586 673 586 L727 586 L637 -97 L547 -97 Q522 -97 505.5 -78 Q489 -59 492 -32 L497 10 Q437 -46 380 -73 Q323 -101 267 -101 Q203 -101 162 -80 Q122 -59 100 -23 Q78 13 74 60 Q69 108 79 179 L116 447 Q126 508 171 547 Q216 586 276 586 L310 586 L257 208 Q250 159 253 134 Q256 108 266 90 Q276 71 295 61 Q313 51 339 51 Q373 51 410 75 Q447 100 491 146 L537 467 Z" /><glyph glyph-name="U" unicode="u" d="M916 766 L829 766 Q789 766 758.5 739.5 Q728 713 722 672 L662 249 Q650 156 593 107 Q536 59 448 59 Q362 59 309 104 Q255 149 255 237 Q255 258 258 282 L327 766 L239 766 Q199 766 169 740 Q139 714 132 673 L75 280 Q70 245 70 212 Q70 66 168 -17 Q266 -99 448 -99 Q795 -99 841 234 L916 766 Z" /><glyph glyph-name="V" unicode="v" d="M377 112 L621 663 Q677 766 779 766 L846 766 Q846 766 846 766 Q846 766 846 765 L462 -101 L232 -101 L63 766 L157 766 Q201 766 234 738.5 Q267 711 276 667 L377 112 Z" /><glyph glyph-name="v" unicode="v" d="M326 91 L502 495 Q552 587 644 587 L704 587 Q704 587 704 587 Q704 587 704 587 L402 -100 L195 -100 L58 587 L143 587 Q182 587 212 562.5 Q242 538 249 498 L326 91 Z" /><glyph glyph-name="w" unicode="w" d="M118 -100 L279 -100 L505 269 L634 -100 L799 -100 L1001 588 L912 588 Q856 588 830 522 L718 139 L572 480 L478 480 L255 154 L237 481 Q234 527 205 557.5 Q176 588 136 588 L86 588 L118 -100 Z" /><glyph glyph-name="W" unicode="w" d="M130 -101 L326 -101 L621 450 L758 -101 L959 -101 L1243 766 L1134 766 Q1066 766 1034 693 L861 163 L714 754 L600 754 L296 180 L273 648 Q270 699 234.5 732.5 Q199 766 150 766 L89 766 L130 -101 Z" /><glyph glyph-name="X" unicode="x" d="M570 685 Q628 765 716 765 L815 765 L529 339 L699 -101 L552 -101 Q499 -101 472 -45 L373 224 L180 -69 Q157 -101 122 -101 L-35 -101 L264 337 L95 765 L219 765 Q293 765 330 689 L421 454 L570 685 Z" /><glyph glyph-name="x" unicode="x" d="M452 523 Q499 587 570 587 L650 587 L430 252 L566 -101 L447 -101 Q404 -101 383 -56 L304 159 L152 -75 Q134 -101 105 -101 L-22 -101 L216 251 L76 587 L176 587 Q236 587 266 525 L342 345 L452 523 Z" /><glyph glyph-name="y" unicode="y" d="M682 575 L239 -319 Q172 -433 56 -433 L-4 -433 Q-3 -429 25 -377.5 Q53 -326 90 -259 Q127 -192 156 -139.5 Q185 -87 185 -87 L60 556 Q58 565 57 573 L139 573 Q180 573 211 548 Q242 523 251 482 L317 170 L319 170 L474 504 Q519 586 601 586 L686 586 Q686 585 686 584 Q684 580 682 575 Z" /><glyph glyph-name="Y" unicode="y" d="M736 766 L601 766 Q543 766 507 712 L339 432 L252 691 Q219 766 148 766 L43 766 L226 264 L175 -99 L359 -99 L410 264 L736 766 Z" /><glyph glyph-name="z" unicode="z" d="M232 28 L451 28 Q486 28 507.5 1.5 Q529 -25 524 -60 L517 -99 L34 -99 Q4 -99 -9 -72.5 Q-22 -46 -5 -20 L393 461 L112 461 L125 533 Q130 556 148 571 Q166 586 189 586 L571 586 Q606 586 621 556 Q636 526 616 496 L232 28 Z" /><glyph glyph-name="Z" unicode="z" d="M271 54 L628 54 Q658 54 676.5 31.5 Q695 9 691 -22 L671 -102 L40 -102 Q6 -102 -8.5 -72.5 Q-23 -43 -4 -14 L481 614 L100 614 L118 704 Q123 731 143 747.5 Q163 764 189 764 L684 764 Q722 764 739 730.5 Q756 697 733 664 L271 54 Z" /><glyph glyph-name="bracketleft" unicode="[" d="M214 843 Q186 843 165.5 825 Q145 807 140 779 L20 -79 Q16 -114 38 -139 Q60 -164 94 -164 L230 -164 Q259 -164 281 -145 Q303 -126 308 -96 Q312 -60 289 -33.5 Q266 -7 229 -7 L326 686 L349 686 Q379 686 400.5 705 Q422 724 427 754 Q431 790 408 816.5 Q385 843 349 843 L214 843 Z" /><glyph glyph-name="backslash" unicode="\" d="M149 842 Q115 842 95 815.5 Q75 789 83 754 L307 -49 Q327 -99 373 -99 Q407 -99 427.5 -72.5 Q448 -46 440 -12 L216 791 Q196 842 149 842 Z" /><glyph glyph-name="bracketright" unicode="]" d="M98 -14 Q69 -14 47 -33.5 Q25 -53 20 -83 Q16 -120 39 -146.5 Q62 -173 98 -173 L235 -173 Q263 -173 284 -155 Q305 -137 309 -108 L431 757 Q435 792 413 817.5 Q391 843 356 843 L219 843 Q189 843 167 824 Q145 805 140 775 Q136 738 159.5 711 Q183 684 220 684 L121 -14 L98 -14 Z" /><glyph glyph-name="braceleft" unicode="{" d="M358 713 Q367 725 382 725 Q400 725 414 737 Q428 749 431 768 L438 819 Q440 842 426 858.5 Q412 875 389 875 L332 875 Q266 875 227 839 Q189 804 179 735 L145 483 Q138 448 121 437 Q104 427 85 423 L81 423 Q72 420 70 411 L56 307 Q55 301 59 296.5 Q63 292 69 291 Q76 290 84 287 Q92 284 98 276 Q104 269 107 256 Q110 243 108 225 L76 -4 Q70 -43 77 -71 Q83 -98 99 -115 Q115 -132 138 -140 Q162 -147 190 -147 L271 -147 Q285 -147 295.5 -138 Q306 -129 308 -115 L319 -40 Q320 -23 309.5 -10.5 Q299 2 282 2 Q250 2 257 49 L283 230 Q285 248 285 267 Q284 285 280 302 Q277 319 268 333 Q260 347 246 356 Q278 373 294 402 Q310 430 316 465 L345 679 Q348 700 358 713 Z" /><glyph glyph-name="bar" unicode="|" d="M17 -97 L139 769 Q145 801 168 821 Q191 841 222 841 L316 841 Q316 841 316 841 Q316 841 316 841 L183 -97 L17 -97 Z" /><glyph glyph-name="braceright" unicode="}" d="M137 6 Q128 -7 113 -7 L102 -7 Q88 -7 77.5 -16.5 Q67 -26 65 -40 L54 -116 Q52 -133 63 -146 Q74 -159 92 -159 L164 -159 Q230 -159 269 -123 Q308 -87 318 -17 L353 238 Q359 273 376 284 Q394 295 414 298 L417 299 Q427 301 429 311 L443 416 Q443 422 439.5 426.5 Q436 431 430 432 Q422 433 414 436 Q406 439 400 447 Q394 454 391 467 Q388 480 390 499 L422 730 Q433 809 399 842 Q364 875 307 875 L225 875 Q211 875 200.5 866 Q190 857 187 843 L177 767 Q175 749 186 736.5 Q197 724 214 724 Q246 724 239 677 L213 494 Q210 475 211 457 Q212 438 215 421 Q219 403 228 389 Q236 375 250 366 Q218 349 202 320 Q186 291 180 256 L150 40 Q147 19 137 6 Z" /><glyph glyph-name="asciitilde" unicode="~" d="M165 366 Q192 344 215.5 334 Q239 324 270 324 Q352 324 395 412 Q405 435 393.5 455.5 Q382 476 356 479 L355 480 Q321 480 307 450 Q296 425 284 425 Q272 425 262.5 429 Q253 433 235 447 Q190 489 130 489 Q47 489 5 401 Q-5 378 6.5 357.5 Q18 337 43 333 L45 333 Q79 332 93 363 Q104 388 116 388 Q127 388 137 383.5 Q147 379 165 366 Z" /><glyph glyph-name="ellipsis" unicode="&#x2026;&#x22ef;" d="M55 205 Q43 140 56.5 120 Q70 100 143 100 Q215 100 235 120 Q255 140 262 205 Q274 271 259 291 Q244 311 173 311 Q100 311 80.5 291 Q61 271 55 205 ZM395 205 Q383 140 397 120 Q411 100 484 100 Q555 100 575.5 120 Q596 140 603 205 Q614 271 599.5 291 Q585 311 513 311 Q440 311 421 291 Q402 271 395 205 ZM736 205 Q724 140 737.5 120 Q751 100 824 100 Q896 100 916.5 120 Q937 140 943 205 Q955 271 940.5 291 Q926 311 854 311 Q781 311 762 291 Q743 271 736 205 Z" /><glyph glyph-name="uni2F00" unicode="&#x2f00;&#x4e00;" d="M1169 389 L1182 483 L212 483 Q138 483 127 417 L109 315 L1089 312 Q1162 312 1169 389 Z" /><glyph glyph-name="uni2F04" unicode="&#x2f04;&#x4e59;" d="M50 10 Q20 -23 35.5 -61.5 Q51 -100 95 -100 L1268 -100 Q1274 -54 1224 -1 Q1190 37 1123 37 L428 37 Q418 37 417 46 Q416 55 425 61 L1119 739 Q1148 770 1134 806.5 Q1120 843 1079 843 L283 843 Q256 843 236 826 Q216 809 212 782 L205 734 L799 734 L50 10 Z" /><glyph glyph-name="uni2F06" unicode="&#x2f06;&#x4e8c;" d="M1202 678 Q1221 678 1234.5 690 Q1248 702 1251 721 L1261 799 L253 799 Q234 799 220.5 787 Q207 775 204 756 L194 678 L1202 678 ZM1153 -99 Q1171 -99 1184.5 -87 Q1198 -75 1201 -57 L1211 21 L101 21 Q83 21 69.5 9 Q56 -3 53 -22 L42 -99 L1153 -99 Z" /><glyph glyph-name="uni2F08" unicode="&#x2f08;&#x4eba;" d="M665 470 L950 17 Q1020 -100 1140 -100 L1282 -100 L876 555 L716 555 L919 843 L704 843 Q675 843 656 818 L19 -100 L129 -100 Q260 -100 348 13 L665 470 Z" /><glyph glyph-name="uni2F09" unicode="&#x2f09;&#x513f;" d="M64 -100 L116 -100 Q183 -100 244 -65 Q305 -30 326 42 Q334 67 364.5 189 Q395 311 432.5 461 Q470 611 498.5 725.5 Q527 840 527 840 L347 840 Q331 840 317 829 Q303 818 298 801 L64 -100 ZM927 840 Q908 840 893 826.5 Q878 813 875 794 L765 12 Q758 -34 786 -67 Q814 -100 861 -100 L1238 -100 L1240 -76 Q1244 -45 1226 -24 Q1208 -3 1177 -3 L1039 -3 Q1018 -3 1006 12 Q995 26 998 47 L1109 840 L927 840 Z" /><glyph glyph-name="uni2F0A" unicode="&#x2f0a;&#x5165;" d="M267 3 L463 700 L238 700 L19 -100 L120 -100 Q171 -100 213 -71 Q254 -43 267 3 ZM1149 830 Q1119 843 1066 843 L166 843 L162 814 Q158 787 175 768 Q192 749 219 749 L923 749 Q972 748 977 699 L1038 51 Q1044 -15 1092 -57 Q1140 -100 1206 -100 L1282 -100 L1206 749 Q1204 773 1192 795 Q1179 816 1149 830 Z" /><glyph glyph-name="uni2F0B" unicode="&#x2f0b;&#x516b;" d="M19 -99 Q117 -99 198.5 -41.5 Q280 16 310 107 L543 843 L362 843 Q342 843 325 831 Q308 819 302 800 L19 -99 ZM1054 107 Q1056 16 1120.5 -41.5 Q1185 -99 1282 -99 L1175 799 Q1175 818 1161.5 830.5 Q1148 843 1127 843 L950 843 L1054 107 Z" /><glyph glyph-name="uni2F0F" unicode="&#x2f0f;&#x51e0;" d="M1227 790 L1114 26 Q1113 17 1120 10 Q1128 4 1138 4 L1192 4 Q1221 4 1244 -12 Q1267 -28 1275 -55 L1282 -100 L988 -100 Q937 -100 906 -67 Q875 -34 881 12 L987 730 L419 730 L436 843 L1180 843 Q1202 843 1216 828 Q1229 813 1227 790 ZM169 835 Q178 843 189 843 L376 843 L243 12 Q237 -34 199 -67 Q161 -100 111 -100 L19 -100 L157 816 Q159 827 169 835 Z" /><glyph glyph-name="uni2F11" unicode="&#x2f11;&#x5200;" d="M1171 14 L1282 843 L152 843 L145 803 Q136 746 183 744 L374 744 L19 -100 L118 -100 Q286 -100 373 107 L640 744 L1001 744 L906 37 Q904 22 892 10 Q880 -1 865 -1 L774 -1 Q733 -1 702.5 -29 Q672 -57 666 -100 L1048 -100 Q1093 -100 1129 -67 Q1165 -33 1171 14 Z" /><glyph glyph-name="uni2F12" unicode="&#x2f12;&#x529b;" d="M279 588 L19 -100 L94 -100 Q254 -100 333 65 L532 588 L1017 588 L940 47 Q938 31 925 21 Q913 11 898 11 L766 11 Q737 11 716 -8 Q695 -26 690 -55 L684 -100 L1056 -100 Q1103 -100 1140 -68 Q1176 -36 1183 10 L1282 709 L579 709 L632 843 L373 843 L321 709 L115 709 L111 683 Q107 644 132 616 Q156 588 194 588 L279 588 Z" /><glyph glyph-name="uni2F14" unicode="&#x2f14;&#x5315;" d="M143 843 L20 11 Q13 -36 43 -68 Q72 -100 120 -100 L1167 -100 Q1171 -60 1144.5 -31 Q1118 -2 1077 -2 L322 -2 Q307 -2 297 9 Q287 19 289 35 L408 843 L143 843 ZM472 509 L454 386 L1182 480 Q1259 495 1275 568 L1282 614 L472 509 Z" /><glyph glyph-name="uni2F17" unicode="&#x2f17;&#x5341;" d="M445 -100 L642 -100 Q661 -100 675 -88 Q689 -76 692 -58 L756 392 L1178 392 Q1206 392 1227.5 410.5 Q1249 429 1254 457 L1262 509 L773 509 L821 843 L678 843 Q637 843 606 816.5 Q575 790 568 749 L534 509 L133 509 Q104 509 82.5 491 Q61 473 57 444 L49 392 L516 392 L445 -100 Z" /><glyph glyph-name="uni2F18" unicode="&#x2f18;&#x535c;" d="M401 772 L240 -100 L473 -100 Q491 -100 505 -91 Q519 -82 523 -67 L608 394 L1135 162 L1140 253 Q1141 352 1049 397 L642 574 L691 843 L508 843 Q468 843 438 823 Q407 803 401 772 Z" /><glyph glyph-name="uni2F1A" unicode="&#x2f1a;&#x5382;" d="M146 844 L350 844 L338 745 L238 13 Q232 -35 196 -68 Q161 -100 115 -100 L19 -100 L33 6 L39 55 L146 844 ZM381 844 L1282 844 L1279 817 Q1274 786 1251.5 765.5 Q1229 745 1199 745 L371 745 L381 844 Z" /><glyph glyph-name="uni2F1C" unicode="&#x2f1c;&#x53c8;" d="M19 -100 L172 -100 Q314 -100 435 -4 L630 172 L809 -9 Q907 -100 1028 -100 L1171 -100 L790 300 L1263 696 L1282 844 L221 844 Q200 844 185 829.5 Q170 815 166 792 L158 727 L1000 727 L649 436 L447 645 Q423 667 395 667 L155 667 L500 309 L19 -100 Z" /><glyph glyph-name="uni2F1D" unicode="&#x2f1d;&#x53e3;" d="M446 843 L1277 843 L1163 10 Q1157 -35 1121 -67 Q1086 -99 1042 -99 L118 -99 Q74 -99 46 -67 Q18 -35 23 10 L137 843 L386 843 L277 65 Q274 47 284 36 Q293 24 309 24 L880 24 Q896 24 911 36 Q925 47 929 65 L1023 728 L432 728 L446 843 Z" /><glyph glyph-name="uni2F1F" unicode="&#x2f1f;&#x571f;" d="M88 4 Q65 4 47 -12.5 Q29 -29 25 -53 L19 -100 L1160 -100 Q1175 -100 1187.5 -89 Q1200 -78 1203 -61 L1211 4 L734 4 L810 561 L1225 561 Q1241 561 1254.5 573 Q1268 585 1271 603 L1280 663 L824 663 L848 843 L681 843 Q657 843 638 826 Q619 809 615 784 L599 663 L200 663 Q178 663 160 647 Q142 631 138 607 L132 561 L585 561 L509 4 L88 4 Z" /><glyph glyph-name="uni2F20" unicode="&#x2f20;&#x58eb;" d="M93 5 Q67 5 48 -12 Q29 -29 25 -55 L19 -100 L1101 -100 Q1123 -100 1140.5 -85 Q1158 -70 1161 -47 L1168 5 L712 5 L786 548 L1212 548 Q1237 548 1254.5 563.5 Q1272 579 1276 604 L1282 645 L799 645 L827 843 L675 843 Q645 843 623 823.5 Q601 804 596 773 L578 645 L145 645 Q124 645 108.5 631 Q93 617 90 595 L83 548 L565 548 L490 5 L93 5 Z" /><glyph glyph-name="uni2F23" unicode="&#x2f23;&#x5915;" d="M19 -100 L901 -100 Q946 -100 983 -70 Q1020 -40 1035 5 L1282 775 L403 775 L432 843 L224 843 L97 565 L193 565 Q305 565 359 669 L1028 669 L825 52 Q820 33 805 21 Q791 10 772 10 L118 10 Q66 8 42.5 -25.5 Q19 -59 19 -100 ZM157 448 Q152 391 176 357.5 Q200 324 243 315 L773 226 L801 334 L157 448 Z" /><glyph glyph-name="uni2F24" unicode="&#x2f24;&#x5927;" d="M19 -100 L169 -100 Q282 -100 352 6 L711 552 L1200 552 Q1241 552 1258 598 L1282 667 L786 667 L882 843 L646 843 Q622 843 608 820 L516 667 L198 667 Q144 667 122 606 L102 552 L441 552 L19 -100 ZM990 -28 Q1032 -100 1104 -100 L1253 -100 L959 451 Q949 468 932 468 L724 468 L990 -28 Z" /><glyph glyph-name="uni2F25" unicode="&#x2f25;&#x5973;" d="M1061 228 L866 132 L1216 13 L1188 -29 Q1154 -87 1117 -96 Q1075 -103 1016 -77 L621 65 L19 -100 L23 -74 Q32 -13 53 26 Q75 64 121 83 L360 147 L178 249 Q157 261 146 283 Q135 304 141 346 L181 637 L84 637 L94 689 Q94 690 94 690 Q94 690 94 690 Q96 713 105 728 Q110 735 118 738 Q126 741 131 741 L199 741 L212 817 Q214 829 222 836 Q230 843 240 843 L441 843 L425 741 L966 741 L978 814 Q980 827 989 835 Q998 843 1010 843 L1206 843 L1188 741 L1282 741 Q1270 676 1267 667 Q1265 658 1259 650 Q1253 641 1243 638 Q1233 635 1227 635 L1171 635 L1129 326 Q1123 284 1108 264 Q1094 244 1061 228 ZM883 320 Q893 324 903 337 Q912 351 915 371 L948 635 L408 635 L375 374 Q374 367 374 356 Q374 346 377 338 Q381 329 389 324 L635 208 L883 320 Z" /><glyph glyph-name="uni2F26" unicode="&#x2f26;&#x5b50;" d="M202 824 L197 843 L1215 843 L1186 732 L800 470 L1282 470 L1274 419 Q1270 394 1251.5 377.5 Q1233 361 1209 361 L781 361 L734 16 Q727 -30 689 -64 Q651 -100 603 -100 L278 -100 L283 -60 Q287 -34 305.5 -18 Q324 -2 349 -2 L484 -2 Q499 -2 513 8 Q526 19 528 34 L573 361 L19 361 L27 412 Q31 436 49 453 Q67 470 90 470 L589 470 L596 513 L941 737 L327 734 Q242 734 202 824 Z" /><glyph glyph-name="uni2F28" unicode="&#x2f28;&#x5bf8;" d="M85 722 Q63 722 47 708.5 Q31 695 27 674 L20 625 L921 625 L832 14 Q829 -3 816 -11 Q803 -20 783 -20 L539 -20 Q503 -20 476 -42.5 Q449 -65 443 -100 L927 -100 Q976 -100 1018 -69 Q1059 -38 1067 16 L1156 625 L1213 625 Q1236 625 1254 640 Q1272 655 1276 678 L1282 722 L1171 722 L1189 843 L1005 843 Q983 843 966.5 829.5 Q950 816 947 794 L936 722 L85 722 ZM71 460 Q66 414 91.5 378 Q117 342 164 330 L731 200 L747 306 L71 460 Z" /><glyph glyph-name="uni2F29" unicode="&#x2f29;&#x5c0f;" d="M19 -81 Q104 -81 175 -24.5 Q246 32 268 118 L423 781 L254 781 Q240 781 228.5 771.5 Q217 762 214 748 L19 -81 ZM858 843 L694 843 Q674 843 658.5 829.5 Q643 816 640 796 L533 44 Q530 27 518 18 Q505 10 487 10 L419 10 Q397 10 379.5 -5 Q362 -20 358 -44 L350 -100 L605 -100 Q629 -100 651 -93 Q674 -85 693 -70 Q711 -55 724 -34 Q737 -12 742 15 L858 843 ZM1033 59 Q1032 -2 1069.5 -41.5 Q1107 -81 1168 -81 L1228 -81 L1270 781 L1122 781 Q1100 781 1084 765 Q1068 749 1066 727 L1033 59 Z" /><glyph glyph-name="uni2F2B" unicode="&#x2f2b;&#x5c38;" d="M384 843 L1282 843 L1244 561 Q1238 515 1201 481 Q1165 448 1120 448 L295 448 L236 12 Q230 -35 196 -67 Q160 -100 116 -100 L19 -100 L33 2 L39 47 L147 843 L349 843 L338 762 L329 696 L307 530 L1010 530 Q1020 530 1028 537 Q1036 545 1037 555 L1065 762 L373 762 L384 843 Z" /><glyph glyph-name="uni2F2D" unicode="&#x2f2d;&#x5c71;" d="M342 760 L181 760 Q158 760 140 743.5 Q122 727 118 703 L20 11 Q14 -36 41 -68 Q68 -100 115 -100 L1053 -100 Q1099 -100 1134 -68 Q1170 -36 1177 11 L1282 760 L1100 760 Q1086 760 1074.5 750 Q1063 740 1061 726 L966 59 Q963 35 943 20 Q925 8 907 8 L288 8 Q267 8 253 23 Q239 37 242 59 L342 760 ZM473 -8 L719 -8 L837 843 L627 843 Q590 843 585 806 L473 -8 Z" /><glyph glyph-name="uni2F2F" unicode="&#x2f2f;&#x5de5;" d="M237 843 L1282 843 L1273 776 Q1270 756 1256 744 Q1242 732 1223 732 L839 732 L733 12 L1228 12 L1220 -57 Q1217 -77 1203 -88.5 Q1189 -100 1170 -100 L19 -100 L28 -32 Q31 -12 45 0 Q59 12 78 12 L489 12 L595 732 L178 732 L187 801 Q190 820 204 831.5 Q218 843 237 843 Z" /><glyph glyph-name="uni2F30" unicode="&#x2f30;&#x5df1;" d="M330 17 Q310 17 298 32 Q286 46 289 67 L344 471 L90 471 L28 13 Q22 -35 49 -68 Q76 -100 120 -100 L1187 -100 L1184 -72 Q1175 15 1100 15 L330 17 ZM1101 356 Q1145 356 1181 389 Q1217 421 1223 469 L1274 843 L129 843 L125 806 Q121 777 139.5 756.5 Q158 736 186 736 L1026 736 L998 521 Q995 500 980 485 Q964 471 943 471 L376 471 L358 356 L1101 356 Z" /><glyph glyph-name="uni2F31" unicode="&#x2f31;&#x5dfe;" d="M327 712 L241 116 Q235 70 200.5 40 Q166 10 120 10 L19 10 L112 670 Q115 688 129 700 Q143 712 162 712 L327 712 ZM804 712 L1282 712 L1197 120 Q1191 74 1154 42 Q1117 10 1072 10 L861 10 L870 49 Q879 92 916 90 L954 90 Q968 90 977 98 Q987 107 989 120 L1062 633 L793 633 L697 -48 Q694 -71 676.5 -85.5 Q659 -100 636 -100 L481 -100 L584 633 L362 633 L373 712 L595 712 L607 795 Q610 816 626 829.5 Q642 843 663 843 L822 843 L804 712 Z" /><glyph glyph-name="uni2F32" unicode="&#x2f32;&#x5e72;" d="M76 400 Q62 400 50.5 390 Q39 380 36 365 L29 292 L523 292 L467 -100 L671 -100 Q684 -100 695 -91 Q706 -82 708 -68 L759 292 L1229 292 Q1239 292 1246.5 298 Q1254 304 1256 314 L1275 400 L772 400 L823 750 L1215 750 Q1229 750 1239 758.5 Q1249 767 1253 780 L1260 843 L177 843 Q157 843 148 821 L134 750 L587 750 L536 400 L76 400 Z" /><glyph glyph-name="uni2F34" unicode="&#x2f34;&#x5e7f;" d="M146 789 L350 789 L242 9 Q235 -37 199 -69 Q163 -100 119 -100 L23 -100 L146 789 ZM869 789 L1277 789 Q1270 749 1240.5 723 Q1211 697 1172 697 L377 697 L390 789 L665 789 L672 843 L823 843 Q844 843 857.5 827 Q871 811 869 789 Z" /><glyph glyph-name="uni2F38" unicode="&#x2f38;&#x5f13;" d="M1099 492 L289 492 L301 574 L981 574 Q1002 574 1020 589 Q1038 605 1040 626 L1059 761 L130 761 Q109 761 95 777 Q81 793 84 815 L88 843 L1282 843 L1252 626 Q1248 598 1234 574 Q1220 550 1200 531 Q1180 514 1156 504 Q1128 492 1099 492 ZM266 309 L1226 309 L1185 17 Q1181 -10 1168 -32 Q1155 -54 1136 -69 Q1117 -84 1094 -92 Q1071 -100 1047 -100 L589 -100 Q595 -65 621 -42 Q647 -19 682 -19 L931 -19 Q952 -19 962 -9 Q971 1 973 16 L1003 228 L105 228 Q64 228 39 257 Q14 286 20 328 L54 574 L266 574 L234 347 Q232 332 241 320 Q250 309 266 309 Z" /><glyph glyph-name="uni2F3C" unicode="&#x2f3c;&#x5fc3;" d="M30 -95 L86 -95 Q147 -95 195.5 -53 Q244 -11 257 52 L393 840 L192 840 L30 -95 ZM487 841 Q476 841 467.5 833.5 Q459 826 457 815 L346 11 Q340 -34 367 -66 Q394 -99 439 -99 L892 -99 Q896 -59 871.5 -30 Q847 -1 808 -1 L585 -1 Q573 -1 563 8 Q552 20 554 36 L665 841 L487 841 ZM696 62 L894 62 L964 750 Q967 789 944.5 814.5 Q922 840 885 840 L777 840 L696 62 ZM992 -51 Q991 -70 1002 -82.5 Q1013 -95 1032 -95 L1189 -95 L1273 717 Q1277 770 1246 805 Q1215 840 1165 840 L1084 840 L992 -51 Z" /><glyph glyph-name="uni2F3D" unicode="&#x2f3d;&#x6208;" d="M732 173 L802 61 Q915 -100 1079 -100 L1158 -100 L963 233 L1137 297 Q1210 323 1224 403 L1227 459 L897 355 L722 653 L1180 653 Q1214 653 1240 676 Q1265 700 1271 736 L1272 768 L1129 768 L1123 782 Q1098 826 1055 826 L906 826 L933 768 L668 768 L648 802 Q622 843 580 843 L362 843 L404 768 L214 768 Q180 768 155 744 Q129 721 123 684 L122 653 L457 653 L667 295 L117 119 Q44 93 30 13 L27 -42 L732 173 Z" /><glyph glyph-name="uni2F3F" unicode="&#x2f3f;&#x624b;" d="M701 12 L726 192 L1175 192 Q1185 192 1192.5 199 Q1200 206 1202 217 L1213 302 L741 302 L763 476 L1194 476 Q1205 476 1213.5 484.5 Q1222 493 1224 505 L1235 586 L778 586 L798 734 L1162 734 Q1206 734 1240.5 765.5 Q1275 797 1282 843 L131 843 Q121 843 113.5 836 Q106 829 104 818 L93 734 L575 734 L555 586 L113 586 Q101 586 91.5 577.5 Q82 569 80 557 L70 476 L540 476 L518 302 L58 302 Q48 302 40 295 Q32 288 30 277 L19 192 L504 192 L480 28 Q478 11 466 0 Q454 -10 439 -10 L332 -10 Q302 -10 279 -31 Q256 -52 251 -83 L249 -100 L578 -100 Q623 -100 658 -68 Q694 -36 701 12 Z" /><glyph glyph-name="uni2F40" unicode="&#x2f40;&#x652f;" d="M797 -61 Q856 -100 923 -100 L1157 -100 L754 184 L1226 493 L1238 596 L778 596 L791 699 L1231 699 Q1247 699 1259.5 710.5 Q1272 722 1275 740 L1282 787 L802 787 L810 843 L638 843 Q627 843 619 835.5 Q611 828 609 816 L605 787 L170 787 Q154 787 142 776.5 Q130 766 128 749 L121 699 L593 699 L580 596 L147 596 L104 500 L955 500 L612 278 L383 446 Q370 456 354 456 L98 456 L461 180 L19 -100 L242 -100 Q299 -100 350 -70 L596 85 L797 -61 Z" /><glyph glyph-name="uni2F42" unicode="&#x2f42;&#x6587;" d="M765 784 L771 815 Q774 828 767 836 Q759 843 747 843 L568 843 L556 784 L155 784 Q139 784 125 771 Q110 760 106 742 L93 679 L942 679 L608 376 L433 552 Q399 584 354 584 L119 584 L454 253 L25 -100 L228 -100 Q348 -92 435 -24 L605 127 L779 -32 Q866 -100 975 -100 L1170 -100 L765 259 L1208 679 Q1225 679 1240 690 Q1253 703 1257 720 L1271 784 L765 784 Z" /><glyph glyph-name="uni2F43" unicode="&#x2f43;&#x6597;" d="M1275 843 L1114 843 Q1092 843 1074.5 829 Q1057 815 1054 793 L952 83 L66 83 Q56 83 47.5 76.5 Q39 70 37 59 L19 -21 L937 -21 L926 -100 L1139 -100 L1150 -21 L1235 -21 Q1248 -21 1258.5 -12.5 Q1269 -4 1270 10 L1282 83 L1165 83 L1275 843 ZM206 798 L1015 690 L993 576 L334 661 Q264 674 235 736 L206 798 ZM137 451 L955 367 L938 252 L270 319 Q201 328 168 389 L137 451 Z" /><glyph glyph-name="uni2F44" unicode="&#x2f44;&#x65a4;" d="M1275 842 Q1267 794 1241.5 771 Q1216 748 1181 748 L385 748 L399 842 L1275 842 ZM317 559 L1246 559 L1240 514 Q1236 490 1218.5 474.5 Q1201 459 1178 459 L1083 459 L1013 -52 Q1010 -73 994.5 -86.5 Q979 -100 959 -100 L798 -100 L874 459 L304 459 L243 12 Q237 -35 200 -68 Q163 -100 117 -100 L26 -100 L155 842 L356 842 L317 559 Z" /><glyph glyph-name="uni2F45" unicode="&#x2f45;&#x65b9;" d="M982 505 L481 505 L511 599 L1221 599 L1143 13 Q1137 -33 1103 -66 Q1069 -100 1026 -100 L701 -100 L702 -91 Q707 -59 729.5 -38.5 Q752 -18 782 -18 L872 -18 Q887 -18 899 -6 Q911 5 913 20 L982 505 ZM1272 754 Q1269 732 1253.5 718 Q1238 704 1218 704 L515 704 L319 100 Q234 -100 53 -100 L23 -100 L284 704 L118 704 L125 754 Q128 772 140.5 783 Q153 794 169 794 L604 794 L610 843 L765 843 Q784 843 796 828.5 Q808 814 805 794 L1279 794 L1272 754 Z" /><glyph glyph-name="uni2F46" unicode="&#x2f46;&#x65e0;" d="M27 -98 L150 -98 Q259 -98 338 11 L579 391 L1201 391 Q1216 391 1228 402 Q1240 413 1242 429 L1250 497 L639 497 L794 737 L1216 737 Q1233 737 1246 749 Q1259 761 1262 779 L1269 843 L196 843 Q180 843 167.5 831.5 Q155 820 152 802 L145 737 L557 737 L402 497 L117 497 Q101 497 88.5 485.5 Q76 474 74 457 L66 391 L341 391 L27 -98 ZM749 350 Q736 350 726 341 Q716 332 714 318 L676 15 Q669 -33 696 -66 Q722 -98 766 -98 L1173 -98 L1180 -49 Q1182 -28 1171 -14 Q1160 0 1141 0 L918 0 Q904 0 895 10 Q886 21 888 38 L927 350 L749 350 Z" /><glyph glyph-name="uni2F47" unicode="&#x2f47;&#x65e5;" d="M384 841 L1278 841 L1165 15 Q1157 -33 1120 -66 Q1081 -98 1035 -98 L112 -98 Q66 -98 41 -65 Q15 -33 23 14 L135 841 L332 841 L316 724 L310 674 L279 452 L1015 452 L1053 728 L370 728 L384 841 ZM962 58 L1001 342 L265 342 L226 58 Q225 48 228 40.5 Q231 33 237 26 Q251 12 272 12 L905 12 Q925 12 942 25 Q958 38 962 58 Z" /><glyph glyph-name="uni2F48" unicode="&#x2f48;&#x66f0;" d="M439 843 L1273 843 L1159 15 Q1152 -32 1115 -66 Q1077 -100 1031 -100 L126 -100 Q80 -100 52 -66 Q23 -32 30 15 L144 843 L386 843 L332 450 L872 450 L867 407 Q861 374 837.5 353 Q814 332 782 332 L315 332 L274 30 Q272 15 282 3 Q291 -8 306 -8 L886 -8 Q901 -8 914 3 Q927 15 929 30 L1028 751 L426 751 L439 843 Z" /><glyph glyph-name="uni2F49" unicode="&#x2f49;&#x6708;" d="M436 842 L1268 842 L1151 10 Q1144 -45 1105 -72 Q1067 -99 1018 -99 L722 -99 L728 -60 Q731 -39 747.5 -24 Q764 -9 785 -9 L889 -9 Q904 -9 916 0 Q929 11 931 25 L954 193 L296 193 L271 10 Q264 -45 225 -72 Q188 -99 140 -99 L33 -99 L165 842 L388 842 L351 583 L1009 583 L1031 737 L422 737 L436 842 ZM969 299 L994 477 L336 477 L311 299 L969 299 Z" /><glyph glyph-name="uni2F4A" unicode="&#x2f4a;&#x6728;" d="M497 -100 L664 -100 Q677 -100 686.5 -91 Q696 -82 698 -68 L793 644 L1227 644 Q1245 644 1259 656.5 Q1273 669 1276 689 L1282 734 L805 734 L819 842 L693 842 Q662 842 640 821 Q618 800 613 768 L608 734 L174 734 Q156 734 142 721 Q128 708 125 689 L119 644 L596 644 L497 -100 ZM20 -100 Q198 -100 287 94 L460 573 L301 573 Q268 573 252 537 L20 -100 ZM954 107 Q965 17 1026 -41.5 Q1087 -100 1171 -100 L1109 538 Q1107 553 1096.5 563 Q1086 573 1072 573 L910 573 L954 107 Z" /><glyph glyph-name="uni2F4B" unicode="&#x2f4b;&#x6b20;" d="M870 6 Q943 -100 1056 -100 L1153 -100 L900 431 L735 431 L885 626 L600 626 L24 -100 L132 -100 Q296 -100 415 36 L688 373 L870 6 ZM104 509 L231 509 Q329 500 371 591 L432 725 L1070 725 L974 504 L1125 504 Q1174 504 1200 556 L1276 744 Q1284 767 1272 785.5 Q1260 804 1238 804 L472 804 L492 843 L257 843 L104 509 Z" /><glyph glyph-name="uni2F4C" unicode="&#x2f4c;&#x6b62;" d="M81 5 Q62 5 48 -8 Q34 -21 31 -41 L23 -100 L1159 -100 Q1176 -100 1189 -88.5 Q1202 -77 1205 -58 L1213 5 L828 5 L899 538 L1219 538 Q1238 538 1253 551.5 Q1268 565 1271 586 L1279 643 L913 643 L940 843 L759 843 Q739 843 723.5 829 Q708 815 704 793 L599 5 L406 5 L506 752 L325 752 Q308 752 295 740 Q282 728 279 710 L185 5 L81 5 Z" /><glyph glyph-name="uni2F4D" unicode="&#x2f4d;&#x6b79;" d="M1219 571 L1232 670 L387 670 L423 745 L1211 745 Q1236 745 1254.5 762.5 Q1273 780 1277 807 L1282 843 L189 843 Q164 843 145.5 825.5 Q127 808 123 781 L118 745 L226 745 L87 424 L199 424 Q277 424 321 506 L349 567 L1014 567 L823 77 Q808 36 783 22 Q759 9 736 9 L131 9 Q90 9 59 -19.5 Q28 -48 20 -92 L19 -100 L876 -100 Q914 -100 949 -79 Q984 -57 1000 -17 L1219 571 ZM129 364 Q124 317 148.5 282.5 Q173 248 216 241 L810 161 L824 270 L129 364 Z" /><glyph glyph-name="uni2F50" unicode="&#x2f50;&#x6bd4;" d="M167 843 Q154 843 144 834 Q134 825 131 811 L22 11 Q16 -34 42 -66 Q72 -99 117 -99 L533 -99 Q536 -58 507 -23 Q478 12 439 12 L277 12 Q261 12 252 23 Q244 33 246 49 L310 518 L493 518 Q544 518 585 555 Q626 592 635 646 L327 646 L354 843 L167 843 ZM743 843 Q731 843 721.5 834.5 Q712 826 710 814 L600 11 Q594 -34 620 -66 Q651 -99 696 -99 L1172 -99 Q1176 -58 1146.5 -23 Q1117 12 1079 12 L855 12 Q839 12 831 23 Q822 33 824 49 L886 504 L1144 572 Q1200 587 1238.5 630.5 Q1277 674 1286 732 L904 632 L933 843 L743 843 Z" /><glyph glyph-name="uni2F51" unicode="&#x2f51;&#x6bdb;" d="M577 -100 L1150 -100 Q1154 -66 1134 -42 Q1114 -18 1083 -18 L708 -18 Q692 -18 684 -7 Q675 4 677 19 L698 174 L1137 174 Q1158 174 1174.5 189 Q1191 204 1194 227 L1200 273 L711 273 L743 510 L1172 510 Q1195 510 1212 525.5 Q1229 541 1232 565 L1238 608 L756 608 L777 762 L1188 762 Q1221 762 1246.5 785 Q1272 808 1277 844 L190 844 Q156 844 131 821 Q106 798 101 762 L574 762 L553 608 L141 608 Q118 608 101 592.5 Q84 577 80 553 L74 510 L540 510 L508 273 L86 273 Q64 273 48 258.5 Q32 244 28 221 L22 174 L495 174 L475 25 Q468 -27 497 -63 Q527 -100 577 -100 Z" /><glyph glyph-name="uni2F52" unicode="&#x2f52;&#x6c0f;" d="M1190 762 L363 762 L376 843 L1282 843 Q1277 808 1251 785 Q1225 762 1190 762 ZM136 843 L343 843 L292 468 L791 468 L736 733 L922 733 Q939 733 953 722 Q966 710 968 692 L1014 468 L1231 468 Q1227 449 1218 424.5 Q1209 400 1196 387 Q1170 364 1136 364 L1032 364 L1135 -100 Q1088 -100 1037 -92 Q986 -84 950 -56 Q883 2 865 94 L810 364 L278 364 L231 31 Q229 10 241 -4 Q253 -18 274 -18 L412 -18 Q444 -18 465 -42 Q485 -66 482 -100 L116 -100 Q70 -100 42 -67 Q14 -35 20 12 L136 843 Z" /><glyph glyph-name="uni2F53" unicode="&#x2f53;&#x6c14;" d="M60 673 L252 673 Q284 673 308 706 L312 712 L1218 712 Q1231 712 1241 721 Q1251 730 1253 743 L1263 809 L366 809 L386 843 L169 843 Q155 843 147 830 L60 673 ZM65 435 Q51 435 42 426 Q32 418 30 405 L19 330 L955 330 L909 0 Q905 -27 912 -49 Q919 -70 933 -86 Q948 -101 969 -109 Q989 -117 1013 -117 L1282 -117 L1281 -79 Q1278 -55 1260 -38.5 Q1242 -22 1218 -22 L1169 -22 Q1133 -22 1138 12 L1192 395 Q1194 412 1183 423 Q1172 435 1156 435 L65 435 ZM91 614 Q82 614 76 608 Q70 603 69 595 L59 525 L1171 525 Q1189 525 1201 536 Q1214 548 1217 565 L1224 614 L91 614 Z" /><glyph glyph-name="uni2F54" unicode="&#x2f54;&#x6c34;" d="M340 -100 L615 -100 Q661 -100 700 -69 Q739 -38 746 17 L859 840 L655 840 Q638 840 624.5 828 Q611 816 608 798 L503 28 Q500 7 485 -5 Q470 -16 445 -16 L413 -16 Q387 -16 367 -34 Q347 -52 343 -79 L340 -100 ZM14 -89 Q120 -89 210 -21.5 Q300 46 339 154 L496 618 Q553 740 433 735 L147 735 Q135 735 125 726 Q115 717 112 704 L103 638 L207 638 Q273 643 245 587 L14 -89 ZM1283 800 L961 748 Q940 745 927 729.5 Q914 714 913 693 L918 57 Q920 -12 963.5 -56 Q1007 -100 1074 -100 L1170 -100 L1162 670 L1234 690 Q1268 703 1275 740 L1283 800 Z" /><glyph glyph-name="uni2F55" unicode="&#x2f55;&#x706b;" d="M806 228 L1181 -100 L937 -100 Q867 -100 807 -56 L610 110 L397 -48 Q325 -100 240 -100 L19 -100 L541 300 L607 811 Q609 825 619 834 Q629 843 642 843 L847 843 L763 228 L806 228 ZM137 226 L269 226 Q296 226 315 244 Q334 263 336 291 L364 826 L307 826 Q249 826 208 786 Q166 745 162 684 L137 226 ZM956 226 L1090 226 Q1116 226 1137 243 Q1158 260 1165 288 L1282 826 L1172 826 Q1135 826 1107 803 Q1079 780 1070 741 L956 226 Z" /><glyph glyph-name="uni2F56" unicode="&#x2f56;&#x722a;" d="M463 -100 L570 675 Q573 693 585.5 704 Q598 715 615 715 L784 715 L681 -34 Q676 -63 655.5 -81.5 Q635 -100 607 -100 L463 -100 ZM990 715 L1154 715 Q1172 715 1184 702 Q1196 689 1195 670 L1146 -100 L1090 -100 Q1029 -100 987.5 -55.5 Q946 -11 949 54 L990 715 ZM358 843 L347 761 L339 707 L243 12 Q237 -35 200 -68 Q164 -100 118 -100 L23 -100 L39 19 L54 121 L153 843 L358 843 ZM390 843 L1276 843 Q1270 807 1244.5 784 Q1219 761 1184 761 L379 761 L390 843 Z" /><glyph glyph-name="uni2F57" unicode="&#x2f57;&#x7236;" d="M1065 510 L1263 510 L1094 810 Q1082 843 1051 843 L803 843 L962 590 L902 590 Q882 590 865 575 L649 368 L476 573 Q461 590 439 590 L397 590 L609 843 L360 843 Q325 843 303 806 L69 510 L280 510 L505 258 L35 -101 L231 -101 Q314 -101 389 -42 L637 150 L822 -23 Q902 -101 1013 -101 L1170 -101 L781 251 L1065 510 Z" /><glyph glyph-name="uni2F5A" unicode="&#x2f5a;&#x7247;" d="M1269 637 Q1265 613 1247.5 597.5 Q1230 582 1205 582 L334 582 L310 416 L1073 416 Q1120 416 1147 384 Q1175 351 1168 306 L1113 -84 Q1111 -91 1106 -95.5 Q1101 -100 1094 -100 L901 -100 L957 300 Q960 315 951 326 Q942 337 927 337 L299 337 L252 10 Q246 -37 209 -68 Q172 -100 126 -100 L27 -100 L154 794 Q157 815 173.5 829 Q190 843 211 843 L371 843 L345 661 L938 661 L955 779 Q960 807 981 825 Q1002 843 1030 843 L1174 843 L1148 661 L1273 661 L1269 637 Z" /><glyph glyph-name="uni2F5B" unicode="&#x2f5b;&#x7259;" d="M1030 13 L1080 396 L1170 396 Q1190 396 1204.5 409.5 Q1219 423 1222 445 L1227 478 L1090 478 L1127 761 L1225 761 Q1241 761 1253.5 773 Q1266 785 1269 803 L1274 843 L171 843 Q154 843 141.5 831.5 Q129 820 126 801 L121 761 L929 761 L892 478 L321 478 Q307 478 298 488 Q288 500 290 517 L317 725 L119 725 L91 509 Q85 463 110 429 Q136 396 181 396 L882 396 L833 19 Q831 3 819 -8 Q807 -19 793 -19 L705 -19 Q675 -19 652.5 -40 Q630 -61 625 -94 L624 -100 L911 -100 Q954 -100 989 -68 Q1024 -35 1030 13 ZM23 -100 Q216 -100 340 88 L499 359 L291 359 L23 -100 Z" /><glyph glyph-name="uni2F5C" unicode="&#x2f5c;&#x725b;" d="M499 -100 L638 -100 Q667 -100 689 -81 Q711 -62 716 -32 L747 188 L1150 188 Q1179 188 1201 207 Q1223 226 1228 256 L1231 279 L759 279 L812 653 L1201 653 Q1230 653 1252 672 Q1274 691 1279 720 L1282 741 L824 741 L838 843 L686 843 Q662 843 645 828 Q628 813 624 789 L617 741 L331 741 L355 830 L186 830 Q161 830 151 804 L60 482 L111 482 Q241 482 298 623 L308 653 L605 653 L552 279 L100 279 Q71 279 49 259.5 Q27 240 22 211 L19 188 L540 188 L499 -100 Z" /><glyph glyph-name="uni2F5D" unicode="&#x2f5d;&#x72ac;" d="M19 -100 L58 -100 Q254 -100 386 97 L646 539 L1191 539 Q1219 539 1239.5 557.5 Q1260 576 1264 605 L1269 640 L1170 640 L1159 765 Q1157 788 1141 803 Q1125 818 1103 818 L956 818 L971 640 L704 640 L814 843 L599 843 Q573 843 557 817 L462 640 L176 640 Q148 640 127.5 622 Q107 604 103 575 L98 539 L403 539 L19 -100 ZM880 112 Q978 -100 1174 -100 L975 454 Q961 485 931 485 L745 485 L880 112 Z" /><glyph glyph-name="uni2F5E" unicode="&#x2f5e;&#x7384;" d="M24 -3 Q33 19 52 34 L529 353 L128 333 Q101 332 86 344 Q71 356 69 376 Q66 396 74 418 Q81 440 100 457 L312 700 L112 700 L117 735 Q120 756 135 769 Q150 782 169 782 L602 782 L610 843 L757 843 Q777 843 789.5 828 Q802 813 800 792 L799 782 L1282 782 L1278 747 Q1274 726 1259.5 713 Q1245 700 1225 700 L532 700 L308 450 Q299 441 301 435 Q303 428 313 429 L655 445 L810 553 Q840 573 874 573 L1106 573 L377 60 Q367 52 371 40 Q374 29 385 29 L940 71 L923 275 L1020 275 Q1066 275 1099.5 243.5 Q1133 212 1138 164 L1164 -100 L963 -100 L956 -36 L86 -91 Q58 -93 41 -79 Q25 -65 20 -45 Q16 -25 24 -3 Z" /><glyph glyph-name="uni2F5F" unicode="&#x2f5f;&#x7389;" d="M72 -18 Q57 -18 46.5 -28 Q36 -38 33 -54 L27 -100 L1116 -100 Q1131 -100 1141.5 -90 Q1152 -80 1155 -64 L1161 -18 L699 -18 L752 390 L1148 390 Q1167 390 1181.5 403.5 Q1196 417 1199 438 L1204 472 L763 472 L801 761 L1224 761 Q1241 761 1253 772 Q1265 783 1267 801 L1273 843 L188 843 Q172 843 160 831.5 Q148 820 145 802 L140 761 L601 761 L564 472 L168 472 Q149 472 134.5 458.5 Q120 445 117 424 L112 390 L553 390 L500 -18 L72 -18 ZM1070 164 Q1059 227 1015.5 266.5 Q972 306 915 306 L868 306 L904 84 Q906 69 916.5 59 Q927 49 941 49 L1089 49 L1070 164 Z" /><glyph glyph-name="uni2F60" unicode="&#x2f60;&#x74dc;" d="M715 396 L725 396 Q793 396 840 346 Q887 296 888 222 L887 -100 L749 -100 Q734 -100 724 -89 Q714 -78 713 -62 L713 -26 L385 -75 Q364 -77 344 -73 Q325 -69 312 -56 Q298 -44 294 -23 Q289 -3 298 26 L521 621 Q560 715 643 715 L749 715 L510 53 Q507 42 513 32 Q520 25 532 25 L714 48 L715 396 ZM354 843 L344 762 L338 720 L244 7 Q237 -47 206 -74 Q175 -100 130 -100 L31 -100 L44 -3 L51 54 L155 843 L354 843 ZM1263 836 Q1258 803 1235.5 782.5 Q1213 762 1183 762 L375 762 L386 843 L1264 843 L1263 836 ZM1163 720 L1143 -97 L1095 -97 Q1037 -97 997 -53.5 Q957 -10 957 54 L972 720 L1163 720 Z" /><glyph glyph-name="uni2F61" unicode="&#x2f61;&#x74e6;" d="M354 408 L856 333 L840 219 L451 278 Q403 286 376 322.5 Q349 359 354 408 ZM255 48 Q252 27 264 12 Q277 -2 298 -2 L435 -2 Q473 -2 498 -31 Q523 -60 519 -100 L116 -100 Q70 -100 42 -67 Q13 -35 20 13 L122 745 L47 745 L53 789 Q57 812 74.5 827.5 Q92 843 115 843 L1282 843 L1276 799 Q1272 776 1255 760.5 Q1238 745 1215 745 L352 745 L255 48 ZM1145 -2 L1252 -2 L1236 -100 L964 -100 Q917 -100 889 -67 Q861 -35 868 13 L943 549 L347 549 L360 647 L1186 647 L1103 48 Q1100 27 1112 12 Q1124 -2 1145 -2 Z" /><glyph glyph-name="uni2F62" unicode="&#x2f62;&#x7518;" d="M93 786 Q73 786 58 773 Q43 760 39 739 L32 690 L129 690 L32 10 Q26 -35 53 -68 Q81 -100 128 -100 L932 -100 Q979 -100 1016 -68 Q1052 -35 1059 10 L1155 690 L1212 690 Q1229 690 1241.5 700.5 Q1254 711 1257 728 L1265 786 L1169 786 L1177 843 L997 843 Q984 843 974.5 834.5 Q965 826 963 813 L959 786 L352 786 L360 843 L181 843 Q168 843 158 834.5 Q148 826 146 813 L142 786 L93 786 ZM301 422 L339 690 L945 690 L907 422 L301 422 ZM796 -21 L286 -21 Q265 -21 253 -7 Q242 8 245 28 L287 326 L893 326 L851 28 Q848 8 833 -7 Q817 -21 796 -21 Z" /><glyph glyph-name="uni2F63" unicode="&#x2f63;&#x751f;" d="M85 18 Q64 18 48 3 Q32 -12 29 -34 L20 -99 L1152 -99 Q1166 -99 1177 -89 Q1188 -79 1190 -64 L1201 18 L719 18 L755 287 L1154 287 Q1178 287 1197 304 Q1216 321 1220 346 L1229 413 L772 413 L805 659 L1218 659 Q1237 659 1252 673 Q1267 687 1271 708 L1279 767 L820 767 L829 841 L663 841 Q649 841 637.5 830.5 Q626 820 624 805 L619 767 L392 767 L410 820 L210 820 L106 498 L182 498 Q236 498 283 533 Q330 568 350 625 L361 659 L604 659 L571 413 L159 413 Q141 413 126.5 399.5 Q112 386 108 366 L98 287 L554 287 L518 18 L85 18 Z" /><glyph glyph-name="uni2F64" unicode="&#x2f64;&#x7528;" d="M404 841 L1221 841 Q1243 841 1255.5 825.5 Q1268 810 1266 787 L1163 15 Q1156 -40 1120 -69 Q1085 -99 1040 -99 L812 -99 L819 -46 Q821 -33 830.5 -24.5 Q840 -16 852 -16 L907 -16 Q921 -16 935 -4 Q948 7 951 23 L977 214 L732 214 L694 -68 Q692 -78 685.5 -84 Q679 -90 671 -90 L490 -90 L530 214 L285 214 L259 15 Q251 -40 214 -69 Q176 -99 131 -99 L28 -99 L158 841 L369 841 L337 601 L582 601 L600 740 L390 740 L404 841 ZM546 334 L567 491 L322 491 L301 334 L546 334 ZM993 334 L1014 491 L769 491 L748 334 L993 334 ZM1028 601 L1047 740 L802 740 L783 601 L1028 601 Z" /><glyph glyph-name="uni2F65" unicode="&#x2f65;&#x7530;" d="M382 844 L1274 844 L1164 15 Q1158 -32 1122 -66 Q1086 -100 1040 -100 L125 -100 Q79 -100 52 -66 Q25 -32 31 15 L142 844 L347 844 L336 761 L331 721 L296 457 L551 457 L591 761 L371 761 L382 844 ZM488 -17 L540 374 L285 374 L238 21 Q236 6 244 -5 Q253 -17 269 -17 L488 -17 ZM959 21 L1006 374 L745 374 L693 -17 L918 -17 Q934 -17 945 -5 Q957 6 959 21 ZM1017 457 L1058 761 L797 761 L756 457 L1017 457 Z" /><glyph glyph-name="uni2F69" unicode="&#x2f69;&#x767d;" d="M682 788 L1282 788 L1174 10 Q1168 -36 1132 -68 Q1097 -100 1051 -100 L115 -100 Q70 -100 42 -68 Q14 -36 20 10 L127 788 L353 788 L342 712 L342 709 L335 657 L335 653 L306 439 L1015 439 L1051 693 L379 693 L392 788 L479 788 L485 843 L645 843 Q664 843 674.5 830.5 Q685 818 683 798 L682 788 ZM961 52 L999 327 L290 327 L251 52 Q248 31 259 17 Q269 3 289 3 L904 3 Q924 3 941 17 Q958 31 961 52 Z" /><glyph glyph-name="uni2F6A" unicode="&#x2f6a;&#x76ae;" d="M1265 623 L1055 623 L1063 680 Q1065 693 1057 703 Q1049 713 1033 713 L854 713 L830 525 L1206 525 L1192 424 L871 150 L1166 -100 L1017 -100 Q920 -100 837 -38 L710 61 L564 -51 Q493 -102 406 -100 L226 -100 L588 177 L321 394 L534 394 Q557 394 576 380 L732 260 L964 443 L306 443 L252 20 Q248 -6 237 -29 Q195 -100 126 -100 L25 -100 L138 794 L355 794 L317 525 L591 525 L617 713 L400 713 L411 794 L628 794 Q632 816 647.5 829.5 Q663 843 684 843 L872 843 L865 794 L1190 794 Q1230 794 1255 766 Q1280 738 1275 698 L1265 623 Z" /><glyph glyph-name="uni2F6B" unicode="&#x2f6b;&#x76bf;" d="M1178 -18 L1216 -18 L1209 -68 Q1207 -82 1197 -91 Q1187 -100 1174 -100 L25 -100 L32 -51 Q34 -36 44 -27 Q54 -18 67 -18 L74 -18 L172 718 Q179 771 219 808 Q258 844 308 844 L392 844 L376 725 L363 626 L277 -18 L385 -18 L483 721 L675 721 L577 -18 L675 -18 L773 721 L966 721 L867 -18 L975 -18 L1074 725 Q1076 741 1067 752 Q1058 762 1043 762 L436 762 L447 844 L1173 844 Q1223 844 1253 808 Q1283 771 1276 718 L1178 -18 Z" /><glyph glyph-name="uni2F6C" unicode="&#x2f6c;&#x76ee;" d="M392 841 L1273 841 L1161 14 Q1156 -34 1120 -67 Q1084 -100 1039 -100 L120 -100 Q75 -100 49 -67 Q22 -34 29 14 L141 841 L345 841 L335 762 L334 759 L329 720 L329 718 L310 579 L1033 579 L1055 742 L379 742 L392 841 ZM961 41 L982 203 L259 203 L237 41 Q234 19 247 5 Q259 -10 280 -10 L905 -10 Q926 -10 942 5 Q958 19 961 41 ZM996 301 L1021 489 L298 489 L272 301 L996 301 Z" /><glyph glyph-name="uni2F6D" unicode="&#x2f6d;&#x77db;" d="M147 557 Q126 557 110.5 543 Q95 529 92 507 L88 479 L655 479 L593 16 Q591 0 578 -11 Q566 -22 552 -22 L480 -22 Q448 -22 423.5 -43.5 Q399 -65 394 -100 L674 -100 Q719 -100 755 -67 Q791 -34 798 14 L860 479 L1058 479 Q1066 479 1073 472 Q1080 464 1078 453 L1052 254 L1216 254 Q1230 254 1241 263.5 Q1252 273 1254 289 L1278 468 Q1283 505 1262 531 Q1241 557 1206 557 L1080 557 L1260 766 L1271 844 L144 844 Q141 811 160 788 Q179 765 209 765 L1023 765 L851 557 L503 557 L468 653 Q434 727 365 727 L231 727 L293 557 L147 557 ZM25 -100 Q212 -100 313 97 L457 438 L275 438 Q251 438 239 413 L25 -100 Z" /><glyph glyph-name="uni2F6E" unicode="&#x2f6e;&#x77e2;" d="M894 -21 Q956 -100 1047 -100 L1180 -100 L928 253 L1161 253 Q1192 253 1214.5 273.5 Q1237 294 1242 325 L1250 384 L680 384 L844 664 L1203 664 Q1230 664 1250.5 682.5 Q1271 701 1276 729 L1282 774 L402 774 L433 843 L232 843 L101 572 L227 572 Q301 572 344 644 L355 664 L609 664 L434 384 L147 384 Q116 384 93 363.5 Q70 343 66 311 L58 253 L354 253 L19 -100 L185 -100 Q269 -100 334 -37 L613 253 L698 253 L894 -21 Z" /><glyph glyph-name="uni2F6F" unicode="&#x2f6f;&#x77f3;" d="M1266 810 Q1263 789 1248 775.5 Q1233 762 1214 762 L414 762 L338 578 L400 578 L328 33 Q325 11 337 -3 Q349 -18 369 -18 L863 -18 Q883 -18 898 -3 Q914 11 916 33 L978 496 L443 496 L453 578 L1190 578 L1115 14 Q1109 -33 1074 -67 Q1039 -100 994 -100 L216 -100 Q171 -100 145 -67 Q118 -33 125 14 L161 292 L27 292 L212 762 L89 762 L94 795 Q97 817 111.5 830.5 Q126 844 146 844 L1270 844 L1266 810 Z" /><glyph glyph-name="uni2F70" unicode="&#x2f70;&#x793a;" d="M346 -99 L587 -99 Q637 -99 676 -63 Q715 -26 722 27 L782 479 L1219 479 Q1234 479 1244.5 488.5 Q1255 498 1257 514 L1267 586 L141 586 Q124 586 112 574.5 Q100 563 97 545 L88 479 L581 479 L521 29 Q519 14 508 2 Q496 -9 481 -9 L395 -9 Q379 -9 367 -20 Q355 -31 352 -48 L346 -99 ZM18 -99 L36 -99 Q195 -99 267 82 L362 411 L208 411 Q170 411 154 369 L18 -99 ZM185 843 Q171 843 160.5 833.5 Q150 824 147 808 L139 744 L1227 744 Q1247 744 1261.5 757.5 Q1276 771 1279 793 L1286 843 L185 843 ZM969 76 Q973 1 1021.5 -49 Q1070 -99 1139 -99 L1171 -99 L1158 342 Q1157 372 1137.5 391.5 Q1118 411 1091 411 L960 411 L969 76 Z" /><glyph glyph-name="uni2F72" unicode="&#x2f72;&#x79be;" d="M23 -100 Q203 -100 294 100 L443 521 L581 521 L500 -100 L655 -100 Q674 -100 688.5 -87 Q703 -74 706 -53 L781 521 L920 521 L958 103 Q968 15 1027 -42.5 Q1086 -100 1168 -100 L1177 -100 L1120 521 L1221 521 Q1239 521 1251.5 533 Q1264 545 1267 564 L1272 603 L792 603 L813 762 L1218 762 Q1241 762 1257 777.5 Q1273 793 1277 817 L1281 844 L218 844 Q196 844 179.5 829 Q163 814 159 790 L156 762 L613 762 L592 603 L152 603 Q134 603 121.5 591 Q109 579 106 560 L101 521 L243 521 L23 -100 Z" /><glyph glyph-name="uni2F73" unicode="&#x2f73;&#x7a74;" d="M330 792 L314 676 L313 663 L308 629 L109 629 L116 682 Q122 728 157 760 Q192 792 236 792 L330 792 ZM859 582 L1057 582 L1150 -100 Q1064 -100 1000.5 -42.5 Q937 15 923 106 L859 582 ZM26 -100 L302 582 L500 582 L302 91 Q207 -100 26 -100 ZM1251 760 Q1277 728 1270 682 L1263 629 L1064 629 L1070 676 Q1072 691 1064 702 Q1055 712 1040 712 L357 712 L367 792 L608 792 L615 843 L765 843 Q785 843 797.5 828 Q810 813 808 792 L1180 792 Q1224 792 1251 760 Z" /><glyph glyph-name="uni2F74" unicode="&#x2f74;&#x7acb;" d="M72 9 Q56 9 43.5 -2 Q31 -13 29 -29 L19 -99 L1140 -99 Q1154 -99 1165 -89.5 Q1176 -80 1178 -65 L1188 9 L955 9 L1181 610 L1035 610 Q1009 610 986.5 594 Q964 578 954 551 L750 9 L472 9 L426 444 Q418 518 368 564 Q318 610 244 610 L207 610 L267 9 L72 9 ZM175 753 Q161 753 149 742.5 Q137 732 135 717 L127 657 L1230 657 Q1248 657 1262.5 670 Q1277 683 1280 701 L1287 753 L815 753 L820 787 Q822 811 809 826.5 Q796 842 774 842 L623 842 L610 753 L175 753 Z" /><glyph glyph-name="uni2F75" unicode="&#x2f75;&#x7af9;" d="M213 -100 L385 -100 Q402 -100 415 -89 Q428 -78 431 -60 L539 707 L596 707 Q613 707 626 718 Q639 729 642 747 L649 795 L304 795 L322 843 L155 843 Q132 843 120 818 L30 569 L113 569 Q212 569 261 672 L274 707 L326 707 L213 -100 ZM610 569 L717 569 Q797 569 837 653 L857 707 L961 707 L864 12 Q861 -5 848 -13 Q836 -21 819 -21 L725 -21 Q693 -21 669 -42 Q645 -63 640 -95 L639 -100 L938 -100 Q986 -100 1026 -70 Q1066 -39 1074 16 L1171 707 L1214 707 Q1231 707 1244 718 Q1257 729 1260 747 L1267 795 L888 795 L906 843 L735 843 Q712 843 700 818 L610 569 Z" /><glyph glyph-name="uni2F76" unicode="&#x2f76;&#x7c73;" d="M953 107 Q971 15 1039 -42 Q1107 -99 1196 -99 L1103 406 L1226 406 Q1244 406 1257.5 418 Q1271 430 1274 449 L1279 485 L791 485 L840 843 L710 843 Q679 843 655.5 822 Q632 801 627 769 L588 485 L140 485 Q123 485 110.5 474 Q98 463 95 445 L90 406 L253 406 L23 -99 L29 -99 Q211 -99 312 85 L459 406 L578 406 L508 -99 L711 -99 L780 406 L897 406 L953 107 ZM221 583 Q223 559 239.5 543.5 Q256 528 278 528 L424 528 L414 674 Q408 742 361.5 786 Q315 830 251 830 L204 830 L221 583 ZM975 528 L1136 528 Q1170 528 1186 565 L1270 830 L1210 830 Q1086 830 1028 695 L975 528 Z" /><glyph glyph-name="uni2F79" unicode="&#x2f79;&#x7f51;" d="M370 843 L1279 843 L1170 12 Q1164 -35 1129 -68 Q1095 -100 1050 -100 L768 -100 Q773 -65 797.5 -42 Q822 -19 855 -19 L948 -19 Q957 -19 965 -12 Q973 -4 974 6 L980 50 L932 50 Q857 50 825 138 L821 152 L802 114 Q766 50 703 50 L551 50 Q476 50 444 137 L439 154 L421 115 Q384 50 321 50 L235 50 L226 -21 Q221 -56 197 -78 Q173 -100 141 -100 L21 -100 L144 843 L339 843 L329 762 L325 736 L320 697 L392 697 Q437 697 456 645 L471 584 L507 659 Q529 697 566 697 L773 697 Q818 697 837 645 L853 583 L889 658 Q911 697 947 697 L1065 697 L1074 762 L359 762 L370 843 ZM243 106 L378 390 L313 645 L243 106 ZM604 67 L760 390 L688 665 L533 345 L604 67 ZM983 74 L1058 640 L914 344 L983 74 Z" /><glyph glyph-name="uni2F7A" unicode="&#x2f7a;&#x7f8a;" d="M486 -100 L644 -100 Q662 -100 675 -88 Q688 -76 691 -58 L705 46 L1135 46 Q1156 46 1172.5 61 Q1189 76 1193 99 L1198 142 L718 142 L750 378 L1157 378 Q1180 378 1197 393.5 Q1214 409 1218 433 L1223 473 L763 473 L793 696 L1207 696 Q1230 696 1247 711.5 Q1264 727 1268 751 L1273 792 L1159 792 L1184 843 L1025 843 Q991 843 971 808 L963 792 L448 792 Q443 814 426.5 828.5 Q410 843 388 843 L242 843 L253 792 L192 792 Q169 792 152 776.5 Q135 761 131 737 L126 696 L593 696 L563 473 L156 473 Q133 473 116 457.5 Q99 442 95 418 L90 378 L550 378 L518 142 L89 142 Q67 142 50.5 127 Q34 112 31 89 L25 46 L505 46 L486 -100 Z" /><glyph glyph-name="uni2F7B" unicode="&#x2f7b;&#x7fbd;" d="M229 -100 L443 -100 Q489 -100 526 -71 Q563 -43 570 15 L679 844 L125 844 L122 826 Q120 800 135.5 780.5 Q151 761 175 761 L466 761 L366 3 Q363 -21 337 -21 L314 -21 Q282 -21 258 -43 Q234 -65 229 -100 ZM102 650 Q98 609 119.5 577.5 Q141 546 179 538 L366 505 L378 600 L102 650 ZM86 160 Q33 127 24 63 L20 24 L303 186 Q325 199 328 225 L337 305 L86 160 ZM825 -100 L1041 -100 Q1086 -100 1124 -71 Q1162 -43 1169 15 L1278 844 L722 844 L720 826 Q717 800 732.5 780.5 Q748 761 773 761 L1062 761 L962 3 Q959 -21 934 -21 L910 -21 Q878 -21 854 -43 Q830 -65 825 -100 ZM699 650 Q695 609 716.5 577.5 Q738 546 776 538 L963 505 L974 600 L699 650 ZM684 168 Q631 135 622 70 L617 24 L899 186 Q921 199 924 225 L934 313 L684 168 Z" /><glyph glyph-name="uni2F7C" unicode="&#x2f7c;&#x8001;" d="M22 227 L161 227 L130 10 Q124 -35 152 -68 Q180 -100 225 -100 L1176 -100 Q1180 -68 1159.5 -44.5 Q1139 -21 1107 -21 L371 -21 Q355 -21 346 -10 Q337 1 340 16 L378 287 L317 287 L446 428 L1216 428 Q1236 428 1250.5 441 Q1265 454 1268 474 L1275 518 L1148 518 L1245 679 L1087 679 Q1039 679 1008 637 L939 518 L754 518 L780 707 L1199 707 Q1220 707 1236 721 Q1252 735 1255 756 L1261 791 L792 791 L799 843 L638 843 Q618 843 602.5 830 Q587 817 584 796 L583 791 L194 791 Q173 791 157 777.5 Q141 764 137 742 L132 707 L571 707 L545 518 L109 518 Q89 518 74.5 505 Q60 492 56 472 L50 428 L204 428 L22 227 ZM491 222 Q435 208 424 151 L419 118 L1147 179 Q1203 193 1214 249 L1219 282 L491 222 Z" /><glyph glyph-name="uni2F7D" unicode="&#x2f7d;&#x800c;" d="M346 -83 L416 462 Q422 501 448 526 Q474 551 509 551 L613 551 L536 -49 Q533 -64 523 -73.5 Q513 -83 500 -83 L346 -83 ZM320 672 L309 590 L304 551 L221 -100 L24 -100 L116 615 Q120 640 136.5 656 Q153 672 176 672 L320 672 ZM1270 809 Q1267 789 1253 775.5 Q1239 762 1220 762 L767 762 L755 672 L1239 672 L1155 14 Q1149 -32 1115 -66 Q1080 -100 1036 -100 L883 -100 L889 -47 Q891 -34 900 -25.5 Q909 -17 921 -17 Q941 -17 949 -8 Q957 0 959 22 L1032 590 L347 590 L358 672 L561 672 L573 762 L122 762 L127 797 Q130 818 143.5 831 Q157 844 176 844 L1274 844 L1270 809 ZM638 -83 L708 462 Q713 501 739 526 Q765 551 801 551 L904 551 L827 -49 Q825 -64 814.5 -73.5 Q804 -83 791 -83 L638 -83 Z" /><glyph glyph-name="uni2F7F" unicode="&#x2f7f;&#x8033;" d="M883 -100 L1046 -100 Q1061 -100 1071.5 -90 Q1082 -80 1084 -64 L1094 16 L1127 17 Q1146 18 1160 32 Q1174 46 1177 67 L1182 100 L1105 99 L1189 759 L1202 759 Q1229 759 1249.5 778.5 Q1270 798 1275 829 L1276 842 L195 842 Q168 842 147.5 822.5 Q127 803 123 773 L121 759 L197 759 L111 80 L79 79 Q59 78 45 64.5 Q31 51 28 29 L23 -4 L897 12 L883 -100 ZM377 620 L394 759 L992 759 L975 620 L377 620 ZM342 351 L366 538 L964 538 L940 351 L342 351 ZM308 83 L332 268 L930 268 L908 95 L308 83 Z" /><glyph glyph-name="uni2F81" unicode="&#x2f81;&#x8089;" d="M343 799 L229 -46 Q225 -69 208.5 -84.5 Q192 -100 169 -100 L21 -100 L138 762 Q141 779 152.5 789 Q164 799 179 799 L343 799 ZM811 799 L1279 799 L1172 10 Q1166 -36 1131 -68 Q1096 -100 1051 -100 L822 -100 Q827 -65 852 -42.5 Q877 -20 910 -20 L928 -20 Q948 -20 960 -6 Q972 8 974 29 L1068 720 L748 720 L716 673 L874 673 L1006 429 L944 429 Q818 429 740 552 L691 641 L628 559 Q520 429 368 429 L315 429 L536 720 L370 720 L381 799 L598 799 L623 831 Q634 843 649 843 L846 843 L811 799 ZM788 316 L954 40 Q768 40 651 216 L637 239 L582 170 Q467 40 311 40 L262 40 L533 382 Q555 407 585 407 L766 407 L696 316 L788 316 Z" /><glyph glyph-name="uni2F82" unicode="&#x2f82;&#x81e3;" d="M1280 832 Q1275 799 1252 778 Q1229 757 1198 757 L852 757 L832 604 L1242 604 L1197 264 Q1191 217 1155 186 Q1121 155 1077 155 L772 155 L749 -15 L1087 -15 Q1118 -15 1139 -40 Q1160 -65 1157 -100 L113 -100 Q68 -100 40 -68 Q14 -35 20 13 L130 842 L332 842 L251 231 L955 231 Q969 231 981 243 Q994 254 997 271 L1029 519 L330 519 L341 604 L622 604 L642 757 L361 757 L372 842 L1282 842 L1280 832 ZM539 -15 L562 155 L241 155 L222 19 Q220 3 231 -6 Q241 -15 255 -15 L539 -15 Z" /><glyph glyph-name="uni2F83" unicode="&#x2f83;&#x81ea;" d="M718 787 L1282 787 L1174 14 Q1167 -33 1130 -66 Q1093 -99 1047 -99 L114 -99 Q68 -99 41 -66 Q15 -33 21 14 L128 787 L334 787 L302 560 L1044 560 L1062 689 L365 689 L379 787 L522 787 L529 842 L693 842 Q707 842 715 832 Q723 822 721 808 L718 787 ZM974 50 L991 172 L248 172 L232 50 Q228 29 240 15 Q251 0 271 0 L917 0 Q938 0 954 15 Q970 29 974 50 ZM1007 290 L1028 444 L286 444 L265 290 L1007 290 Z" /><glyph glyph-name="uni2F84" unicode="&#x2f84;&#x81f3;" d="M330 471 L454 761 L1207 761 Q1233 761 1252 779 Q1271 797 1275 825 L1277 842 L204 842 Q179 842 160 824 Q141 806 137 778 L135 761 L252 761 L109 427 Q100 403 109.5 385.5 Q119 368 141 367 L1004 392 L1008 362 Q1010 351 1017 344.5 Q1024 338 1033 338 L1203 338 L1185 531 Q1176 612 1123 665 Q1070 718 997 718 L980 718 L997 473 L334 453 Q320 453 330 471 ZM96 -19 Q70 -19 50.5 -37.5 Q31 -56 26 -86 L24 -100 L1094 -100 Q1121 -100 1140.5 -81.5 Q1160 -63 1165 -33 L1167 -19 L698 -19 L725 190 L1122 190 Q1144 190 1160.5 205.5 Q1177 221 1181 246 L1184 271 L735 271 L745 349 L590 349 Q573 349 560.5 337 Q548 325 545 307 L541 271 L143 271 Q121 271 104.5 255.5 Q88 240 84 215 L81 190 L530 190 L503 -19 L96 -19 Z" /><glyph glyph-name="uni2F85" unicode="&#x2f85;&#x81fc;" d="M672 843 Q666 799 636 770.5 Q606 742 566 742 L368 742 L381 843 L672 843 ZM724 779 Q728 807 747 825 Q766 843 791 843 L1267 843 L1158 3 Q1153 -40 1122 -70 Q1090 -100 1051 -100 L111 -100 Q73 -100 49 -70 Q25 -40 31 3 L139 843 L339 843 L326 742 L320 697 L292 481 L606 481 L599 428 Q595 399 575 380 Q555 361 529 361 L277 361 L233 22 Q231 7 239 -5 Q248 -17 262 -17 L922 -17 Q936 -17 948 -6 Q959 5 961 22 L1005 361 L691 361 L699 418 Q703 446 721.5 463.5 Q740 481 764 481 L1020 481 L1054 742 L719 742 L724 779 Z" /><glyph glyph-name="uni2F86" unicode="&#x2f86;&#x820c;" d="M1267 616 Q1263 593 1247 578 Q1231 563 1209 563 L768 563 L748 416 L1211 416 L1155 1 Q1149 -41 1117 -70 Q1085 -100 1045 -100 L107 -100 Q67 -100 43 -70 Q18 -41 24 1 L80 416 L284 416 L273 335 L267 289 L230 13 Q228 -1 236 -10 Q243 -18 256 -18 L918 -18 Q931 -18 941 -10 Q950 -1 952 13 L995 335 L301 335 L312 416 L543 416 L563 563 L71 563 L75 593 Q78 616 94.5 630.5 Q111 645 132 645 L574 645 L590 761 L119 761 L120 771 Q125 802 147 822 Q169 842 199 842 L1276 842 L1274 832 Q1269 801 1247 781 Q1225 761 1195 761 L794 761 L779 645 L1271 645 L1267 616 Z" /><glyph glyph-name="uni2F88" unicode="&#x2f88;&#x821f;" d="M721 216 L750 66 L535 66 L496 275 L647 275 Q674 275 694.5 258.5 Q715 242 721 216 ZM783 605 L786 476 L572 476 L569 676 L709 676 Q739 676 760.5 655.5 Q782 635 783 605 ZM1217 426 L1282 426 L1272 356 Q1269 342 1258.5 333 Q1248 324 1234 324 L1203 324 L1157 9 Q1149 -45 1110 -72 Q1070 -100 1022 -100 L733 -100 L735 -88 Q740 -58 762.5 -39 Q785 -20 815 -20 L903 -20 Q918 -20 931 -9 Q944 2 946 16 L990 324 L334 324 L288 9 Q280 -45 240 -72 Q200 -100 152 -100 L55 -100 L70 4 L75 40 L116 324 L19 324 L29 394 Q32 408 42.5 417 Q53 426 67 426 L131 426 L185 799 L402 799 L348 426 L1005 426 L1048 719 L423 719 L435 799 L515 799 L521 843 L690 843 Q708 843 719.5 830 Q731 817 729 799 L1271 799 L1217 426 Z" /><glyph glyph-name="uni2F8A" unicode="&#x2f8a;&#x8272;" d="M282 -18 L1118 -18 Q1151 -18 1172 -42 Q1193 -66 1190 -100 L135 -100 Q84 -100 51 -64 Q20 -29 26 23 L111 630 L324 630 L313 550 L313 548 L308 515 L274 269 L536 269 L575 548 L362 548 L374 630 L912 630 L976 737 L355 737 Q298 655 208 655 L88 655 L193 834 Q199 843 209 843 L413 843 L401 819 L1201 819 Q1217 819 1224 805 Q1231 791 1222 775 L1132 630 L1268 630 L1221 300 Q1214 253 1176 220 Q1138 187 1092 187 L262 187 L240 29 Q237 9 249 -5 Q261 -18 282 -18 ZM780 548 L741 269 L955 269 Q976 269 991 280 Q1007 290 1009 310 L1043 548 L780 548 Z" /><glyph glyph-name="uni2F8D" unicode="&#x2f8d;&#x866b;" d="M1073 147 Q1112 147 1140.5 118.5 Q1169 90 1171 48 L1177 -100 L977 -100 L975 -57 L19 -96 L24 -60 Q27 -39 41.5 -26 Q56 -13 76 -11 L513 6 L538 188 L178 188 Q134 188 107 220 Q81 252 88 298 L151 770 L351 770 L340 691 L333 635 L289 316 Q287 296 298 282 Q310 268 330 268 L548 268 L606 691 L373 691 L384 770 L616 770 L627 843 L780 843 Q798 843 810 828.5 Q822 814 820 795 L817 770 L1282 770 L1219 298 Q1212 252 1177 220 Q1143 188 1099 188 L737 188 L714 15 L972 25 L966 147 L1073 147 ZM805 691 L749 268 L968 268 Q987 268 1004 282 Q1019 296 1021 316 L1072 691 L805 691 Z" /><glyph glyph-name="uni2F8E" unicode="&#x2f8e;&#x8840;" d="M1185 -20 L1225 -20 L1219 -60 Q1217 -77 1204 -88.5 Q1191 -100 1174 -100 L19 -100 L24 -60 Q27 -43 40 -31.5 Q53 -20 70 -20 L165 671 Q172 717 208 749 Q245 781 289 781 L386 781 L372 677 L367 647 L275 -20 L383 -20 L477 658 L668 658 L574 -20 L681 -20 L774 658 L965 658 L872 -20 L979 -20 L1076 677 Q1077 687 1070 695 Q1063 701 1054 701 L403 701 L414 781 L520 781 L529 843 L675 843 Q699 843 714.5 825 Q730 807 727 781 L1187 781 Q1232 781 1259 749 Q1287 717 1280 671 L1185 -20 Z" /><glyph glyph-name="uni2F8F" unicode="&#x2f8f;&#x884c;" d="M67 -99 L274 -99 L344 400 L286 400 L404 599 L182 599 L29 352 L130 352 L67 -99 ZM67 618 L203 618 Q283 618 341 695 L438 840 L216 840 L67 618 ZM520 555 Q498 555 481.5 540 Q465 525 461 503 L454 452 L813 452 L755 35 Q752 14 736 0 Q720 -14 699 -14 L588 -14 Q566 -14 549 -29 Q532 -44 528 -66 L525 -93 L835 -93 Q880 -93 916 -60 Q953 -28 959 17 L1020 452 L1192 452 Q1210 452 1224.5 464.5 Q1239 477 1242 495 L1250 555 L520 555 ZM560 833 Q543 833 530 821.5 Q517 810 514 793 L506 738 L1219 738 Q1237 738 1251.5 750.5 Q1266 763 1269 781 L1276 833 L560 833 Z" /><glyph glyph-name="uni2F90" unicode="&#x2f90;&#x8863;" d="M750 -61 Q746 -32 725.5 -14 Q705 4 677 4 L549 4 Q532 4 522 12 Q512 21 515 38 L569 453 L394 453 L488 704 L1216 704 Q1237 704 1253 718 Q1269 733 1273 755 L1278 802 L789 802 Q790 819 780 831 Q770 843 754 843 L594 843 L589 802 L164 802 Q145 802 131 789 Q118 777 115 758 L109 704 L280 704 L24 62 L73 62 Q221 62 292 222 L336 329 L300 15 Q293 -39 323 -69 Q354 -100 399 -100 L755 -100 L750 -61 ZM1156 371 Q1200 388 1221.5 433.5 Q1243 479 1249 530 L1022 468 L976 615 Q960 654 923 654 L767 654 L947 73 Q967 -4 1025 -52 Q1084 -100 1159 -100 L1187 -100 L1051 342 L1156 371 Z" /><glyph glyph-name="uni2F93" unicode="&#x2f93;&#x89d2;" d="M1192 664 L1282 664 L1191 10 Q1184 -44 1146 -72 Q1109 -100 1062 -100 L845 -100 L849 -71 Q853 -48 870 -33.5 Q887 -19 909 -19 L951 -19 Q966 -19 977 -8 Q989 3 991 17 L1010 160 L737 160 L706 -60 Q704 -74 694 -83 Q684 -92 670 -92 L500 -92 L535 160 L261 160 L240 10 Q233 -44 194 -72 Q155 -100 107 -100 L24 -100 L38 5 L49 80 L126 632 L70 632 L182 819 Q198 843 223 843 L410 843 L392 810 L1220 810 Q1241 810 1251 792 Q1261 774 1250 754 L1192 664 ZM547 242 L566 380 L292 380 L273 242 L547 242 ZM361 664 L982 664 L1019 729 L344 729 L307 664 L331 664 L303 461 L577 461 L594 583 L349 583 L361 664 ZM1022 242 L1041 380 L767 380 L748 242 L1022 242 ZM1052 461 L1069 583 L795 583 L779 461 L1052 461 Z" /><glyph glyph-name="uni2F94" unicode="&#x2f94;&#x8a00;" d="M289 261 L300 343 L1190 343 L1146 14 Q1140 -34 1105 -67 Q1069 -100 1024 -100 L115 -100 Q70 -100 43 -67 Q16 -34 23 14 L66 343 L269 343 L228 33 Q225 11 237 -3 Q248 -18 269 -18 L892 -18 Q912 -18 928 -3 Q944 11 946 33 L977 261 L289 261 ZM96 578 L101 618 Q104 637 116.5 648.5 Q129 660 147 660 L1230 660 L1225 620 Q1222 601 1209.5 589.5 Q1197 578 1180 578 L96 578 ZM791 811 L1278 811 L1273 771 Q1270 753 1257 741 Q1244 729 1227 729 L91 729 L96 769 Q99 787 112 799 Q125 811 142 811 L589 811 L593 843 L767 843 Q778 843 785.5 834 Q793 825 791 813 L791 811 ZM74 415 L80 457 Q82 475 94.5 486 Q107 497 123 497 L1208 497 L1203 455 Q1200 438 1188 426.5 Q1176 415 1159 415 L74 415 Z" /><glyph glyph-name="uni2F95" unicode="&#x2f95;&#x8c37;" d="M524 843 L332 645 Q268 583 188 583 L19 583 L289 843 L524 843 ZM1282 597 L1123 597 Q1050 597 998 654 L840 843 L1068 843 L1282 597 ZM805 484 Q785 498 763 498 L537 498 Q517 498 499 487 L355 391 Q308 360 254 360 L21 360 L327 557 Q365 583 401 583 L897 583 Q951 583 1001 542 L1238 360 L1028 360 Q972 360 925 394 L805 484 ZM306 240 L318 319 L1181 319 L1132 11 Q1125 -36 1090 -68 Q1053 -100 1011 -100 L109 -100 Q66 -100 40 -68 Q16 -36 23 11 L71 319 L279 319 L234 30 Q230 9 242 -5 Q253 -20 272 -20 L874 -20 Q893 -20 909 -5 Q924 9 928 30 L961 240 L306 240 Z" /><glyph glyph-name="uni2F96" unicode="&#x2f96;&#x8c46;" d="M1034 612 L359 612 L371 703 L1246 703 L1203 373 Q1198 330 1168 300 Q1139 273 1104 260 L169 260 Q134 273 113 300 Q92 330 98 373 L140 703 L341 703 L330 620 L326 586 L299 381 Q297 362 314 362 L984 362 Q991 362 997 367 Q1003 372 1004 381 L1034 612 ZM136 807 Q138 823 149 833 Q160 843 174 843 L1282 843 L1274 787 Q1272 771 1261.5 761 Q1251 751 1237 751 L129 751 L136 807 ZM1153 219 L1051 -9 L1172 -9 L1164 -65 Q1162 -80 1151.5 -90 Q1141 -100 1127 -100 L19 -100 L26 -44 Q28 -29 39 -19 Q50 -9 64 -9 L150 -9 L107 219 L181 219 Q234 219 275.5 182.5 Q317 146 329 87 L347 -9 L856 -9 L912 119 Q965 219 1059 219 L1153 219 Z" /><glyph glyph-name="uni2F9A" unicode="&#x2f9a;&#x8d64;" d="M936 -15 L1006 503 L1219 503 Q1237 503 1250 514.5 Q1263 526 1266 545 L1271 582 L782 582 L798 702 L1228 702 Q1246 702 1260 714.5 Q1274 727 1277 746 L1282 781 L809 781 L818 843 L651 843 Q636 843 624.5 833 Q613 823 611 807 L607 781 L178 781 Q160 781 146 768.5 Q132 756 129 737 L124 702 L597 702 L580 582 L132 582 Q115 582 101.5 570 Q88 558 85 540 L80 503 L354 503 L218 -100 L292 -100 Q348 -100 391 -65 Q434 -30 448 27 L556 503 L805 503 L738 16 Q736 1 724 -10 Q713 -21 697 -21 L665 -21 Q631 -21 606.5 -43.5 Q582 -66 576 -100 L841 -100 Q875 -100 903 -75 Q931 -50 936 -15 ZM273 442 L129 442 L19 -49 Q82 -49 131 -9 Q180 31 195 95 L273 442 ZM1206 442 L1062 442 L1048 99 Q1047 37 1086.5 -6 Q1126 -49 1185 -49 L1206 442 Z" /><glyph glyph-name="uni2F9B" unicode="&#x2f9b;&#x8d70;" d="M345 348 L168 348 L19 -91 L161 -91 Q186 -91 205.5 -75.5 Q225 -60 232 -35 L1152 -100 Q1192 -101 1228 -75 Q1264 -49 1282 -12 L775 26 L788 181 L1047 181 Q1110 181 1141 246 L1151 275 L794 275 L806 407 L605 407 Q592 407 583 398.5 Q574 390 572 377 L536 39 L259 57 L345 348 ZM194 537 Q161 537 136 504.5 Q111 472 105 436 L1153 436 Q1198 436 1225.5 468.5 Q1253 501 1258 537 L813 537 L830 698 L1179 698 Q1212 698 1237 730.5 Q1262 763 1268 799 L840 799 L847 843 L653 843 Q633 843 619 830.5 Q605 818 602 799 L257 799 Q223 799 198 766 Q173 733 168 698 L599 698 L582 537 L194 537 Z" /><glyph glyph-name="uni2F9C" unicode="&#x2f9c;&#x8db3;" d="M753 17 L1223 -33 L1162 -79 Q1135 -102 1100 -100 L231 -21 Q222 -56 196.5 -78 Q171 -100 137 -100 L21 -100 L144 372 L336 372 L252 59 L554 33 L606 430 L223 430 Q179 430 153 462 Q128 494 134 540 L174 843 L374 843 L337 558 Q333 538 344 525 Q354 512 374 512 L982 512 Q1002 512 1016 525 Q1030 538 1032 558 L1059 760 L402 760 L413 843 L1271 843 L1231 540 Q1225 494 1190 462 Q1155 430 1111 430 L807 430 L788 289 L1190 289 Q1185 253 1160 229.5 Q1135 206 1101 206 L778 206 L753 17 Z" /><glyph glyph-name="uni2F9D" unicode="&#x2f9d;&#x8eab;" d="M1203 323 L1278 345 L1262 227 L1187 205 L1156 -13 Q1151 -48 1123 -73 Q1094 -99 1059 -99 L749 -99 L751 -84 Q756 -56 777.5 -36.5 Q799 -17 827 -17 L921 -17 Q933 -17 942 -9 Q952 0 953 13 L972 145 L22 -95 L25 -74 Q31 -30 60.5 2.5 Q90 35 133 47 L701 193 L62 193 L71 258 Q73 269 81 276.5 Q89 284 100 284 L137 284 L197 713 Q203 754 235 783 Q268 813 308 813 L417 813 L402 707 L401 695 L401 693 L396 658 L1043 658 L1049 707 Q1051 716 1045 724 Q1040 731 1030 731 L433 731 L444 813 L498 813 L502 840 L671 840 Q684 840 692.5 833.5 Q701 827 699 813 L1174 813 Q1214 813 1238 783 Q1263 754 1257 713 L1203 323 ZM991 284 L1002 366 L355 366 L344 284 L991 284 ZM1016 466 L1029 558 L382 558 L369 466 L1016 466 Z" /><glyph glyph-name="uni2F9F" unicode="&#x2f9f;&#x8f9b;" d="M475 -100 L641 -100 Q658 -100 670 -89.5 Q682 -79 684 -62 L711 131 L1138 131 Q1162 131 1179.5 146.5 Q1197 162 1201 186 L1205 219 L723 219 L750 413 L1187 413 Q1210 413 1227.5 428.5 Q1245 444 1249 468 L1254 501 L1123 501 L1201 682 L1107 682 Q1009 682 957 582 L922 501 L396 501 L390 546 Q380 606 336.5 644 Q293 682 235 682 L169 682 L197 501 L120 501 Q97 501 79.5 485.5 Q62 470 58 446 L54 413 L545 413 L519 219 L91 219 Q68 219 50.5 203.5 Q33 188 29 164 L24 131 L506 131 L475 -100 ZM174 799 Q152 799 135.5 784.5 Q119 770 115 747 L112 720 L1217 720 Q1239 720 1255.5 734.5 Q1272 749 1275 772 L1279 799 L803 799 L809 843 L649 843 Q630 843 616 831 Q602 819 599 799 L174 799 Z" /><glyph glyph-name="uni2FA0" unicode="&#x2fa0;&#x8fb0;" d="M1231 640 Q1227 613 1207.5 595.5 Q1188 578 1162 578 L375 578 L390 681 L1238 681 L1231 640 ZM299 459 L1242 459 L1236 412 Q1232 387 1214 371 Q1196 355 1172 355 L586 355 L540 17 Q538 2 546 -9 Q555 -20 571 -20 L608 -20 Q639 -20 659 -44 Q679 -68 676 -100 L428 -100 Q383 -100 356 -69 Q328 -39 335 7 L382 355 L285 355 L238 11 Q232 -35 196 -68 Q160 -100 115 -100 L19 -100 L33 5 L40 52 L148 843 L351 843 L339 751 L337 734 L299 459 ZM1279 818 Q1275 789 1254 770 Q1233 751 1205 751 L385 751 L398 843 L1282 843 L1279 818 ZM1218 308 L1202 256 Q1199 247 1195.5 240.5 Q1192 234 1186 229 Q1175 221 1153 221 L1035 221 L1183 -100 L985 -100 L839 203 Q816 249 838 278 Q853 308 900 308 L1218 308 Z" /><glyph glyph-name="uni2FA2" unicode="&#x2fa2;&#x9091;" d="M273 -4 L1111 -4 Q1148 -4 1172 -32.5 Q1196 -61 1192 -100 L115 -100 Q69 -100 41 -65 Q14 -31 20 17 L88 516 L296 516 L285 431 L282 412 L255 211 L528 211 L558 431 L323 431 L334 516 L1270 516 L1233 241 Q1225 194 1187 160 Q1148 126 1103 126 L243 126 L232 47 Q229 26 241 11 Q252 -4 273 -4 ZM766 431 L736 211 L969 211 Q989 211 1007 227 Q1024 243 1028 265 L1051 431 L766 431 ZM201 550 Q166 550 144 576 Q122 602 127 639 L155 843 L363 843 L352 764 L350 749 L337 657 Q336 648 342 641 Q349 634 359 634 L1028 634 Q1033 634 1038.5 635.5 Q1044 637 1048 641 Q1048 641 1048 641 Q1053 645 1056 649 Q1059 653 1060 657 L1074 764 L390 764 L401 843 L1282 843 L1254 639 Q1251 602 1223 576 Q1197 550 1162 550 L201 550 Z" /><glyph glyph-name="uni2FA3" unicode="&#x2fa3;&#x9149;" d="M1277 809 Q1273 782 1254.5 764.5 Q1236 747 1210 747 L946 747 L938 691 L1246 691 L1152 -3 Q1148 -44 1116 -72 Q1086 -100 1046 -100 L98 -100 Q58 -100 36 -72 Q14 -44 20 -3 L114 691 L308 691 L295 601 L293 579 L258 318 L343 318 Q352 318 360 326 Q368 334 369 344 L403 601 L328 601 L340 691 L415 691 L423 747 L105 747 L110 782 Q114 809 133 826 Q152 843 177 843 L1282 843 L1277 809 ZM628 747 L620 691 L733 691 L741 747 L628 747 ZM954 3 L962 64 L224 64 L215 3 Q215 -2 217 -6 Q219 -10 222 -14 Q225 -18 230 -19.5 Q235 -21 240 -21 L925 -21 Q935 -21 944 -14 Q952 -7 954 3 ZM974 154 L984 228 L758 228 Q724 228 701 255 Q679 282 684 320 L721 601 L608 601 L570 320 Q565 282 537 255 Q509 228 474 228 L245 228 L236 154 L974 154 ZM1034 601 L926 601 L892 344 Q890 334 896 326 Q902 318 912 318 L996 318 L1034 601 Z" /><glyph glyph-name="uni2FA5" unicode="&#x2fa5;&#x91cc;" d="M328 540 L318 454 Q317 449 318 445 Q317 450 318 455 L328 540 ZM1014 421 Q1029 435 1032 455 L1042 540 L1032 454 Q1029 434 1014 421 Q999 408 980 408 Q999 408 1014 421 ZM363 841 L337 624 L598 624 L612 756 L388 756 L399 841 L1273 841 L1225 437 Q1219 390 1185 356 Q1151 324 1107 324 L758 325 L746 226 L1197 226 L1191 176 Q1188 157 1175 144.5 Q1162 132 1145 132 L734 132 L719 7 L1185 7 L1173 -74 Q1172 -85 1164 -92 Q1156 -99 1146 -99 L30 -99 L38 -38 Q41 -18 55 -5.5 Q69 7 87 7 L513 7 L529 132 L77 132 L85 191 Q87 207 97.5 216.5 Q108 226 122 226 L545 226 L560 324 L209 324 Q165 324 139 357 Q114 390 120 437 L168 841 L363 841 ZM808 756 L793 624 L1053 624 L1067 756 L808 756 ZM783 540 L767 408 L980 408 Q999 408 1014 421 Q1029 434 1032 454 L1042 540 L783 540 ZM571 408 L587 540 L328 540 L318 455 Q317 450 318 445 Q318 431 327 421 Q338 408 358 408 L571 408 ZM327 421 Q338 408 358 408 Q338 408 327 421 Q318 431 318 445 Q318 432 327 421 Z" /><glyph glyph-name="uni2FA6" unicode="&#x2fa6;&#x91d1;" d="M376 762 L1055 762 Q1064 762 1071 757 Q1078 752 1079 741 L1083 682 Q1085 651 1105 631 Q1125 611 1153 611 L1279 611 L1264 777 Q1259 808 1238 826 Q1217 844 1189 844 L262 844 Q232 844 206 826 Q180 807 168 774 L114 611 L256 611 Q301 611 322 663 L346 740 Q350 751 359 757 Q367 762 376 762 ZM71 -17 Q55 -17 42.5 -28.5 Q30 -40 28 -58 L22 -100 L1148 -100 Q1164 -100 1176 -88.5 Q1188 -77 1191 -59 L1196 -17 L715 -17 L761 340 L1190 340 Q1204 340 1215.5 350.5 Q1227 361 1229 377 L1235 422 L772 422 L795 598 L993 598 Q1010 598 1023 610 Q1036 622 1039 641 L1044 680 L408 680 Q390 680 377.5 668 Q365 656 362 637 L357 598 L595 598 L572 422 L144 422 Q129 422 118 412 Q107 402 104 385 L99 340 L561 340 L515 -17 L71 -17 ZM319 185 Q314 230 284.5 259.5 Q255 289 214 289 L122 289 L140 63 Q142 45 154.5 33 Q167 21 184 21 L332 21 L319 185 ZM1187 289 L1073 289 Q1000 289 965 206 L904 21 L1069 21 Q1096 21 1109 51 L1187 289 Z" /><glyph glyph-name="uni2FAA" unicode="&#x2faa;&#x96b6;" d="M572 448 L585 546 L97 546 L99 564 Q103 591 122.5 608 Q142 625 167 625 L596 625 L609 722 L158 722 L161 740 Q165 767 184 784.5 Q203 802 229 802 L620 802 Q623 820 636 831.5 Q649 843 666 843 L826 843 L821 802 L1261 802 L1237 625 L1282 625 L1276 586 Q1274 568 1261 557 Q1248 546 1231 546 L1226 546 L1217 477 Q1211 432 1176 400 Q1141 368 1096 368 L762 368 L715 22 Q708 -29 669 -64 Q630 -100 580 -100 L357 -100 Q363 -65 387.5 -42.5 Q412 -20 446 -20 L473 -20 Q488 -20 500 -9 Q512 2 514 16 L561 368 L110 368 L113 386 Q117 413 136 430.5 Q155 448 181 448 L572 448 ZM810 722 L797 625 L1050 625 L1063 722 L810 722 ZM786 546 L773 448 L991 448 Q1006 448 1018 459 Q1029 469 1031 484 L1040 546 L786 546 ZM198 329 Q252 329 293 293 Q334 257 344 201 L347 182 L161 182 L136 329 L198 329 ZM155 143 L342 143 L271 17 Q196 -100 74 -100 L19 -100 L155 143 ZM1111 -100 Q998 -100 947 26 L913 143 L1101 143 L1172 -100 L1111 -100 ZM1169 329 L1106 182 L918 182 L943 238 Q990 329 1078 329 L1169 329 Z" /><glyph glyph-name="uni2FAC" unicode="&#x2fac;&#x96e8;" d="M387 382 Q360 389 345.5 411 Q331 433 334 462 L339 497 L521 456 L508 355 L387 382 ZM829 107 Q797 115 780 141.5 Q763 168 766 201 L770 232 L953 191 L939 82 L829 107 ZM357 108 Q328 115 311.5 139.5 Q295 164 299 196 L304 232 L486 191 L472 82 L357 108 ZM1273 790 Q1270 772 1257.5 760 Q1245 748 1228 748 L801 748 L792 684 L1252 684 L1163 12 Q1156 -34 1120 -67 Q1083 -100 1040 -100 L832 -100 L837 -60 Q840 -43 852 -31.5 Q864 -20 880 -20 L926 -20 Q941 -20 954 -8 Q966 4 968 19 L1042 580 L779 580 L693 -72 Q691 -84 682 -92 Q673 -100 662 -100 L486 -100 L575 580 L357 580 L371 684 L589 684 L598 748 L131 748 L138 805 Q141 823 153 833.5 Q165 844 181 844 L1280 844 L1273 790 ZM988 456 L975 355 L851 383 Q826 389 811.5 410.5 Q797 432 800 459 L805 497 L988 456 ZM326 684 L222 -100 L26 -100 L126 651 Q128 666 138 675 Q148 684 162 684 L326 684 Z" /><glyph glyph-name="uni2FAE" unicode="&#x2fae;&#x975e;" d="M108 70 Q78 70 55.5 49.5 Q33 29 28 -3 L24 -26 L317 -26 L307 -100 L457 -100 Q478 -100 493 -86.5 Q508 -73 511 -51 L631 843 L477 843 Q458 843 444 830 Q430 817 427 797 L426 789 L211 789 Q181 789 158.5 768.5 Q136 748 131 716 L128 693 L413 693 L382 457 L177 457 Q147 457 124.5 436.5 Q102 416 97 384 L94 361 L369 361 L330 70 L108 70 ZM1002 843 L852 843 Q831 843 815.5 829 Q800 815 797 792 L677 -100 L828 -100 Q848 -100 863 -86.5 Q878 -73 882 -51 L885 -26 L1103 -26 Q1134 -26 1156.5 -5.5 Q1179 15 1184 47 L1187 70 L898 70 L937 361 L1138 361 Q1168 361 1190.5 381.5 Q1213 402 1218 434 L1221 457 L950 457 L981 693 L1193 693 Q1223 693 1245.5 713.5 Q1268 734 1273 766 L1276 789 L994 789 L1002 843 Z" /><glyph glyph-name="uni2FAF" unicode="&#x2faf;&#x9762;" d="M1265 780 Q1262 758 1246 743 Q1230 728 1209 728 L768 728 L759 663 L1241 663 L1156 17 Q1150 -30 1114 -64 Q1078 -99 1035 -99 L117 -99 Q73 -99 48 -64 Q22 -30 29 17 L113 663 L323 663 L313 589 L312 584 L311 570 L310 569 L240 35 Q237 14 248 -1 Q258 -15 277 -15 L329 -15 L406 570 L337 570 L349 663 L538 663 L547 728 L113 728 L121 791 Q125 812 139.5 826 Q154 840 173 840 L1273 840 L1265 780 ZM658 -15 L677 133 L538 133 L519 -15 L658 -15 ZM690 236 L708 366 L569 366 L552 236 L690 236 ZM925 570 L848 -15 L897 -15 Q917 -15 932 -1 Q947 14 949 35 L1019 570 L925 570 ZM734 570 L596 570 L581 459 L720 459 L734 570 Z" /><glyph glyph-name="uni2FB0" unicode="&#x2fb0;&#x9769;" d="M1083 566 L766 566 L760 521 L1212 521 L1170 209 Q1164 162 1129 131 Q1094 99 1049 99 L703 99 L697 54 L1170 54 L1166 24 Q1163 2 1147.5 -11.5 Q1132 -25 1112 -25 L686 -25 L676 -100 L481 -100 L491 -25 L19 -25 L23 5 Q26 26 41.5 40 Q57 54 77 54 L502 54 L508 99 L163 99 Q118 99 92 131 Q65 162 72 209 L114 521 L314 521 L303 442 L298 405 L274 227 Q271 206 283 192 Q294 178 314 178 L519 178 L554 442 L332 442 L343 521 L565 521 L571 566 L255 566 Q211 566 184 598 Q158 629 164 676 L170 718 L110 718 L116 764 Q119 779 129.5 788 Q140 797 154 797 L181 797 L183 810 Q185 824 195 833.5 Q205 843 218 843 L387 843 L381 797 L1021 797 L1022 810 Q1025 824 1035 833.5 Q1045 843 1058 843 L1227 843 L1220 797 L1282 797 L1275 752 Q1273 737 1262.5 727.5 Q1252 718 1238 718 L1210 718 L1204 676 Q1198 629 1163 598 Q1128 566 1083 566 ZM1002 442 L749 442 L714 178 L919 178 Q939 178 955 192 Q970 206 973 227 L1002 442 ZM394 645 L965 645 Q979 645 991 655 Q1003 666 1005 682 L1010 718 L370 718 L365 682 Q363 666 371 655 Q380 645 394 645 Z" /><glyph glyph-name="uni2FB2" unicode="&#x2fb2;&#x97ed;" d="M80 -4 Q61 -4 46.5 -17 Q32 -30 29 -51 L22 -100 L1121 -100 Q1140 -100 1154 -87 Q1168 -74 1171 -53 L1178 -4 L879 -4 L899 146 L1148 146 Q1170 146 1185.5 161 Q1201 176 1205 199 L1210 234 L911 234 L937 430 L1172 430 Q1193 430 1209 444.5 Q1225 459 1229 482 L1233 518 L949 518 L973 704 L1215 704 Q1237 704 1253 718.5 Q1269 733 1272 756 L1277 792 L985 792 L992 843 L833 843 Q819 843 808 833.5 Q797 824 795 808 L687 -4 L526 -4 L639 843 L480 843 Q466 843 455 833.5 Q444 824 442 808 L440 792 L197 792 Q176 792 160 777.5 Q144 763 141 740 L136 704 L428 704 L403 518 L168 518 Q147 518 131 503.5 Q115 489 112 466 L107 430 L392 430 L366 234 L116 234 Q95 234 79 219.5 Q63 205 60 183 L55 146 L354 146 L334 -4 L80 -4 Z" /><glyph glyph-name="uni2FB3" unicode="&#x2fb3;&#x97f3;" d="M315 286 L326 367 L1164 367 L1114 12 Q1107 -36 1071 -69 Q1034 -100 988 -100 L131 -100 Q86 -100 58 -67 Q30 -35 36 12 L87 367 L296 367 L268 184 L930 184 L947 286 L315 286 ZM906 23 L918 100 L257 100 L245 23 Q243 6 253 -5 Q262 -17 277 -17 L864 -17 Q879 -17 892 -5 Q904 7 906 23 ZM1079 677 L1025 522 L1259 522 L1247 456 Q1245 441 1234 429.5 Q1223 418 1208 418 L19 418 L26 463 Q30 487 48.5 504.5 Q67 522 91 522 L246 522 L235 677 L360 677 Q397 677 424.5 644.5 Q452 612 458 574 L464 522 L815 522 L832 592 Q845 623 872 650 Q899 677 941 677 L1079 677 ZM789 789 L1282 789 L1276 758 Q1269 729 1246 711 Q1223 693 1194 693 L68 693 L76 734 Q80 758 97.5 773.5 Q115 789 139 789 L570 789 L581 843 L760 843 Q775 843 784.5 832 Q794 821 792 806 L789 789 Z" /><glyph glyph-name="uni2FB7" unicode="&#x2fb7;&#x98df;" d="M784 607 L783 635 Q782 655 767.5 668 Q753 681 733 681 L577 681 L578 607 L351 607 L341 528 L1041 528 L1027 451 L292 451 L314 607 L102 607 L20 21 Q13 -30 43 -66 Q74 -100 125 -100 L343 -100 L350 -44 Q352 -32 345 -24 Q337 -16 326 -16 L260 -16 Q245 -16 236 -5 Q228 5 230 19 L257 199 L1083 199 Q1134 199 1174 236 Q1213 273 1221 326 L1258 607 L784 607 ZM1010 306 Q1010 299 1007 295 Q1004 291 999 286 Q994 282 988 281 Q982 280 976 280 L267 280 L281 364 L1017 364 L1010 306 ZM1165 155 L1162 111 Q1159 98 1150 90 Q1140 81 1127 81 L978 81 L1180 -100 L927 -100 L728 66 Q692 94 704 125 Q716 155 772 155 L1165 155 ZM376 752 Q359 752 348 736 L294 639 L81 639 L169 798 Q202 843 254 843 L1118 843 Q1177 843 1209 788 L1282 639 L1078 639 L1030 728 Q1015 752 990 752 L376 752 Z" /><glyph glyph-name="uni2FB8" unicode="&#x2fb8;&#x9996;" d="M1273 770 Q1269 742 1249 724.5 Q1229 707 1203 707 L764 707 L755 643 L1229 643 L1143 11 Q1136 -35 1101 -68 Q1065 -100 1020 -100 L117 -100 Q73 -100 45 -68 Q18 -35 24 11 L111 643 L315 643 L304 563 L301 539 L287 442 L997 442 L1014 563 L335 563 L346 643 L564 643 L572 707 L94 707 L97 725 Q101 752 121 769.5 Q141 787 167 787 L251 787 L237 843 L384 843 Q433 843 455 787 L924 787 L933 804 Q958 843 998 843 L1159 843 L1128 787 L1275 787 L1273 770 ZM941 29 L958 156 L248 156 L231 29 Q228 8 240 -6 Q252 -20 272 -20 L886 -20 Q907 -20 922 -6 Q938 8 941 29 ZM969 236 L987 362 L277 362 L259 236 L969 236 Z" /><glyph glyph-name="uni2FB9" unicode="&#x2fb9;&#x9999;" d="M1271 657 L1264 610 Q1262 595 1251.5 586 Q1241 577 1228 577 L1173 577 L1234 388 L1105 388 Q1031 388 996 470 L961 577 L770 577 L744 388 L540 388 L566 577 L372 577 L303 460 Q255 388 179 388 L49 388 L161 577 L75 577 L81 624 Q84 639 94 648 Q104 657 118 657 L577 657 L591 761 L116 761 L119 782 Q123 808 141.5 825 Q160 842 185 842 L1281 842 L1278 821 Q1274 795 1255 778 Q1236 761 1211 761 L795 761 L780 657 L1271 657 ZM295 284 L306 365 L1209 365 L1160 12 Q1154 -34 1119 -67 Q1083 -100 1038 -100 L113 -100 Q68 -100 41 -67 Q13 -34 20 12 L68 365 L272 365 L261 284 L257 259 L247 183 L980 183 L994 284 L295 284 ZM959 30 L969 103 L236 103 L226 30 Q223 9 235 -5 Q247 -19 267 -19 L904 -19 Q925 -19 940 -5 Q956 9 959 30 Z" /><glyph glyph-name="uni2FBB" unicode="&#x2fbb;&#x9aa8;" d="M1266 511 Q1285 486 1281 452 L1274 406 L1182 406 L1124 -2 Q1118 -43 1084 -73 Q1050 -102 1008 -102 L700 -102 L703 -81 Q707 -57 725.5 -41.5 Q744 -26 768 -26 L866 -26 Q883 -26 895 -15 Q908 -3 910 12 L918 65 L278 65 L254 -102 L38 -102 L111 406 L19 406 L26 452 Q31 486 58 511 Q85 537 120 539 L153 769 Q157 800 182 822 Q208 843 240 843 L379 843 L365 744 L363 730 L362 719 L786 719 Q808 719 820 705 Q833 691 830 670 L811 539 L996 539 L1025 744 Q1026 754 1020 762 Q1013 769 1003 769 L395 769 L405 843 L1179 843 Q1211 843 1230 821 Q1249 800 1245 769 L1212 539 Q1246 537 1266 511 ZM352 655 L336 539 L602 539 L616 642 Q618 655 605 655 L352 655 ZM929 146 L937 203 L298 203 L290 146 L929 146 ZM1060 423 L1063 438 Q1064 448 1057 456 Q1051 463 1041 463 L272 463 Q261 463 253 456 Q244 448 243 438 L240 423 L329 423 L319 347 L318 341 L309 284 L949 284 L958 347 L339 347 L350 423 L1060 423 Z" /><glyph glyph-name="uni2FBC" unicode="&#x2fbc;&#x9ad8;" d="M227 -74 L290 395 L110 395 Q100 395 92 387 Q82 379 80 368 L19 -100 L201 -100 Q210 -100 218 -93 Q226 -85 227 -74 ZM1282 810 L814 810 L815 820 Q816 830 810 837 Q805 843 795 843 L615 843 L611 810 L164 810 Q152 810 143 802 Q133 793 131 781 L124 725 L1247 725 Q1258 725 1266 732 Q1273 739 1274 750 L1282 810 ZM384 619 L992 619 L981 539 Q979 530 971 523 Q961 516 951 516 L373 516 Q362 516 357 524 Q352 533 354 539 L376 691 L174 691 L151 535 Q146 491 173 460 Q200 429 243 429 L1067 429 Q1112 429 1145 460 Q1180 491 1188 535 L1206 691 L394 691 L384 619 ZM896 21 Q931 52 937 98 L958 263 L508 263 L500 198 L786 198 L773 104 Q772 92 765 83 Q757 75 747 75 L490 75 Q477 75 471 84 Q465 93 467 104 L489 263 L321 263 L301 98 Q294 52 320 21 Q345 -9 388 -9 L816 -9 Q860 -9 896 21 ZM1221 395 L312 395 L300 303 L1015 303 L977 19 Q975 6 969 -2 Q962 -10 955 -13 Q947 -17 941 -18 Q935 -19 934 -19 L880 -19 Q857 -19 839 -34 Q823 -49 820 -73 L817 -100 L1052 -100 Q1097 -100 1131 -65 Q1166 -32 1171 14 L1221 395 Z" /><glyph glyph-name="uni2FC1" unicode="&#x2fc1;&#x9b3c;" d="M795 -10 Q805 -18 821 -18 L1141 -18 Q1173 -18 1193 -42 Q1213 -66 1210 -100 L679 -100 Q656 -100 637 -92 Q617 -84 603 -69 Q589 -53 583 -32 Q576 -11 580 16 L600 167 L336 -57 Q286 -99 225 -99 L19 -99 L500 300 L192 300 Q147 300 120 331 Q94 363 100 410 L154 811 L355 811 L345 731 L342 712 L327 600 L589 600 L607 731 L372 731 L383 811 L458 811 Q460 825 470 834 Q480 843 494 843 L664 843 L659 811 L1282 811 L1228 410 Q1222 363 1187 331 Q1152 300 1107 300 L744 300 L696 253 L819 253 L787 15 Q784 -2 795 -10 ZM808 731 L790 600 L1053 600 L1071 731 L808 731 ZM779 515 L760 379 L977 379 Q996 379 1011 393 Q1027 406 1029 427 L1041 515 L779 515 ZM559 379 L578 515 L315 515 L303 427 Q301 407 312 393 Q324 379 344 379 L559 379 ZM1074 110 L1072 175 L1116 175 Q1150 175 1173.5 150 Q1197 125 1198 89 L1197 13 L1070 13 L1071 35 L897 23 Q848 20 834 52 Q820 84 837 129 L898 258 L1072 258 L1007 123 Q999 106 1014 106 L1074 110 Z" /><glyph glyph-name="uni2FC5" unicode="&#x2fc5;&#x9e7f;" d="M992 364 L979 267 L1211 289 L1210 282 Q1205 250 1183 228.5 Q1161 207 1129 203 L968 188 L945 17 Q942 1 951 -10 Q960 -20 974 -20 L1091 -20 Q1121 -20 1141 -43.5 Q1161 -67 1158 -100 L834 -100 Q789 -100 762 -68 Q736 -36 742 10 L790 364 L992 364 ZM521 364 L508 267 L738 267 Q733 232 708 210 Q683 188 649 188 L497 188 L474 17 Q472 1 481 -10 Q490 -20 504 -20 L621 -20 Q652 -20 672 -43.5 Q692 -67 688 -100 L363 -100 Q319 -100 292 -68 Q265 -36 272 10 L320 364 L521 364 ZM827 815 L1282 815 Q1277 782 1253.5 761 Q1230 740 1199 740 L966 740 L957 671 L1259 671 L1232 475 Q1227 440 1200 415 Q1172 389 1138 389 L280 389 L229 10 Q223 -36 189 -68 Q156 -100 111 -100 L19 -100 L33 -2 L39 47 L144 815 L338 815 L328 740 L326 721 L319 671 L457 671 L467 740 L349 740 L359 815 L625 815 L629 843 L803 843 Q814 843 821 835 Q828 827 827 815 ZM429 465 L447 595 L308 595 L291 465 L429 465 ZM741 465 L759 595 L633 595 L616 465 L741 465 ZM769 671 L779 740 L653 740 L644 671 L769 671 ZM1068 595 L946 595 L929 465 L1021 465 Q1034 465 1044 474 Q1053 483 1055 496 L1068 595 Z" /><glyph glyph-name="uni2FC7" unicode="&#x2fc7;&#x9ebb;" d="M702 -100 L813 517 Q814 523 818 526.5 Q822 530 828 530 L906 530 L810 -7 Q802 -48 772 -74 Q742 -100 702 -100 ZM232 -100 L341 519 Q342 524 346 527 Q350 530 355 530 L434 530 L339 -7 Q331 -48 301 -74 Q271 -100 232 -100 ZM1254 642 L1247 591 Q1245 579 1236 570.5 Q1227 562 1215 562 L1109 562 L1025 -59 Q1022 -77 1009 -88.5 Q996 -100 979 -100 L840 -100 L930 562 L796 562 L801 602 Q804 619 816.5 630.5 Q829 642 845 642 L934 642 L939 677 Q941 694 953.5 705 Q966 716 983 716 L1137 716 L1127 642 L1254 642 ZM784 642 L777 591 Q775 579 766 570.5 Q757 562 745 562 L637 562 L553 -59 Q550 -77 537 -88.5 Q524 -100 507 -100 L370 -100 L460 562 L324 562 L329 602 Q332 619 344.5 630.5 Q357 642 374 642 L464 642 L468 677 Q471 694 483.5 705 Q496 716 512 716 L665 716 L655 642 L784 642 ZM655 530 L731 530 Q737 530 741 525.5 Q745 521 745 514 L687 -100 Q650 -100 626 -72.5 Q602 -45 605 -6 L655 530 ZM1126 530 L1199 530 Q1206 530 1211 525 Q1216 520 1215 512 L1157 -100 Q1121 -100 1096.5 -72.5 Q1072 -45 1075 -6 L1126 530 ZM338 819 L327 739 L324 716 L228 10 Q222 -35 188 -67 Q155 -100 110 -100 L19 -100 L32 -2 L48 115 L144 819 L338 819 ZM856 819 L1282 819 L1271 739 L353 739 L364 819 L659 819 L662 843 L836 843 Q845 843 851.5 836 Q858 829 856 819 Z" /><glyph glyph-name="uni2FCA" unicode="&#x2fca;&#x9ed1;" d="M879 114 Q898 97 896 71 L876 -99 L678 -99 L706 132 L829 132 Q861 132 879 114 ZM1173 117 Q1189 103 1187 80 L1166 -99 L968 -99 L996 132 L1131 132 Q1157 132 1173 117 ZM584 114 Q603 97 601 71 L579 -99 L383 -99 L410 132 L534 132 Q566 132 584 114 ZM17 -99 L133 132 L329 132 L253 -19 Q235 -55 197 -77 Q159 -99 117 -99 L17 -99 ZM1031 732 L1019 638 Q1017 628 1010.5 619.5 Q1004 611 995 608 L822 556 L830 615 Q833 641 849 661 Q865 681 889 688 L1031 732 ZM746 251 L1216 251 L1210 208 Q1208 191 1196 179.5 Q1184 168 1169 168 L64 168 L71 218 Q73 232 82.5 241.5 Q92 251 104 251 L544 251 L553 317 L90 317 L95 357 Q98 375 110.5 387.5 Q123 400 139 400 L563 400 L570 452 L219 452 Q175 452 149 485 Q124 518 130 566 L166 841 L360 841 L325 579 Q323 556 335 541 Q347 526 367 526 L580 526 L611 767 L388 767 L397 841 L1277 841 L1241 566 Q1235 518 1202 485 Q1168 452 1124 452 L772 452 L765 400 L1227 400 L1222 358 Q1219 341 1207 329 Q1195 317 1179 317 L754 317 L746 251 ZM813 769 L781 523 L995 523 Q1015 523 1030 540 Q1046 557 1049 580 L1074 769 L813 769 ZM435 592 Q372 618 378 696 L382 732 L534 681 Q559 671 557 640 L546 556 L435 592 Z" /><glyph glyph-name="uni2FCD" unicode="&#x2fcd;&#x9f0e;" d="M582 354 Q603 328 598 292 L546 -100 L355 -100 L389 148 L291 148 L229 -29 Q197 -100 132 -100 L19 -100 L107 148 L52 148 L58 191 Q61 208 72 218 Q83 228 98 228 L399 228 L406 279 Q407 289 401 296 Q395 304 386 304 L184 304 Q145 304 121 333 Q97 362 103 402 L152 768 Q155 792 171.5 807 Q188 822 210 822 L347 822 L302 485 L297 447 L292 410 Q291 397 298.5 388 Q306 379 318 379 L528 379 Q562 379 582 354 ZM384 436 Q371 451 366 470 Q360 489 363 511 L407 843 L588 843 L580 780 L578 763 L572 721 L841 721 L849 780 L602 780 L610 843 L1039 843 L994 511 Q991 489 981 470 Q970 451 954 436 Q938 422 917 414 Q897 405 876 405 L453 405 Q432 405 414 414 Q396 422 384 436 ZM563 655 L555 595 L825 595 L833 655 L563 655 ZM546 528 L542 495 Q541 485 547 479 Q553 472 562 472 L785 472 Q794 472 802 479 Q810 485 811 495 L816 528 L546 528 ZM1189 203 Q1210 178 1205 142 L1173 -100 L982 -100 L1013 128 Q1014 138 1008 146 Q1002 153 992 153 L874 153 L840 -100 L648 -100 L701 292 Q705 328 733 354 Q760 379 794 379 L1005 379 Q1005 379 1005 379 Q1005 379 1005 379 L995 304 L916 304 Q907 304 899 296 Q892 289 890 279 L884 228 L1134 228 Q1168 228 1189 203 ZM1024 304 L1039 411 L1042 439 L1088 780 Q1091 798 1104 810 Q1117 822 1134 822 L1282 822 L1226 402 Q1220 362 1189 333 Q1157 304 1118 304 L1024 304 Z" /><glyph glyph-name="uni2FCE" unicode="&#x2fce;&#x9f13;" d="M335 7 L367 137 Q379 182 412.5 209.5 Q446 237 489 237 L587 237 L531 7 L335 7 ZM93 7 L93 237 L144 237 Q204 237 245 193 Q286 149 287 84 L288 7 L93 7 ZM584 -12 L579 -54 Q576 -71 565 -81.5 Q554 -92 538 -92 L19 -100 L24 -59 Q27 -42 38 -31.5 Q49 -21 65 -20 L584 -12 ZM296 635 L306 713 L127 713 L132 754 Q135 771 146.5 781.5 Q158 792 174 792 L317 792 L319 811 Q321 825 331 834 Q341 843 354 843 L518 843 L511 792 L691 792 L685 752 Q683 735 671 724 Q659 713 644 713 L501 713 L490 635 L664 635 L661 610 Q657 586 640.5 571 Q624 556 601 556 L111 556 L115 580 Q118 604 135 619.5 Q152 635 174 635 L296 635 ZM901 32 Q803 -100 659 -100 L591 -100 L811 223 L675 485 L828 485 Q874 485 900 438 L928 376 L1034 531 L740 531 Q719 531 705 547.5 Q691 564 694 588 L697 610 L884 610 L898 713 L704 713 L709 744 Q712 765 726.5 778.5 Q741 792 761 792 L908 792 L910 802 Q912 820 924.5 831.5 Q937 843 953 843 L1111 843 L1104 792 L1282 792 L1278 762 Q1275 740 1260.5 726.5 Q1246 713 1226 713 L1094 713 L1080 610 L1253 610 L1239 509 L1021 206 L1163 -100 L1102 -100 Q974 -100 901 32 ZM330 522 L641 522 L619 359 Q614 318 585 290 Q557 261 522 261 L171 261 Q154 261 139 269 Q124 277 113 290 Q102 302 97 320 Q91 338 94 359 L116 522 L312 522 L302 447 L301 437 L289 355 Q288 348 293 342 Q297 337 304 337 L403 337 Q410 337 416 342 Q422 348 423 355 L435 447 L320 447 L330 522 Z" /><glyph glyph-name="uni2FCF" unicode="&#x2fcf;&#x9f20;" d="M231 -5 Q238 -14 252 -14 L357 -14 Q391 -14 412.5 -39.5 Q434 -65 430 -100 L103 -100 Q62 -100 39 -71 Q15 -42 20 -1 L72 376 L275 376 L226 17 Q224 5 231 -5 ZM339 81 Q306 86 287 111 Q268 136 272 169 L273 177 L454 155 L442 67 L339 81 ZM358 257 Q327 261 309.5 284.5 Q292 308 295 339 L297 354 L479 331 L466 243 L358 257 ZM137 400 Q100 400 79 429 Q57 458 63 499 L110 843 L316 843 L304 758 L296 701 L292 672 L603 672 L600 651 Q595 618 571.5 597.5 Q548 577 517 577 L279 577 L270 511 Q268 498 275 490 Q283 482 294 482 L998 482 Q1009 482 1019 490 Q1028 498 1030 511 L1039 577 L728 577 L735 630 Q738 648 751.5 660 Q765 672 783 672 L1052 672 L1063 753 L752 753 L757 787 Q761 812 778.5 827.5 Q796 843 820 843 L1282 843 L1235 499 Q1229 458 1199 429 Q1170 400 1133 400 L137 400 ZM623 819 Q618 790 597.5 771.5 Q577 753 548 753 L330 753 L343 843 L626 843 L623 819 ZM809 257 Q779 261 761 284.5 Q743 308 747 339 L749 354 L929 331 L917 243 L809 257 ZM682 -5 Q690 -14 702 -14 L807 -14 Q841 -14 862.5 -39.5 Q884 -65 881 -100 L554 -100 Q514 -100 489 -71 Q465 -42 470 -1 L522 376 L725 376 L676 17 Q674 5 682 -5 ZM1151 -14 L1160 -14 Q1191 -14 1211 -37.5 Q1231 -61 1228 -93 L1227 -100 L1002 -100 Q962 -100 938 -71 Q914 -42 919 -1 L971 376 L1174 376 L1125 17 Q1123 5 1130 -5 Q1137 -14 1151 -14 ZM790 81 Q757 86 738.5 111 Q720 136 723 169 L724 177 L904 155 L892 67 L790 81 Z" /><glyph glyph-name="uni2FD0" unicode="&#x2fd0;&#x9f3b;" d="M167 195 Q122 195 95 224 Q68 253 73 295 L98 471 L301 471 L292 408 L291 399 L287 365 L554 365 L560 408 L311 408 L320 471 L1244 471 L1219 295 Q1214 253 1178 224 Q1142 195 1098 195 L167 195 ZM763 408 L757 365 L1025 365 L1031 408 L763 408 ZM749 304 L742 257 L987 257 Q996 257 1004 263 Q1012 270 1014 280 L1017 304 L749 304 ZM278 304 L275 280 Q274 270 280 263 Q286 257 296 257 L539 257 L545 304 L278 304 ZM193 492 Q158 492 137 517 Q116 542 121 577 L154 819 L358 819 L349 759 L348 748 L345 726 L1067 726 L1071 759 L374 759 L382 819 L443 819 L446 843 L627 843 Q636 843 641.5 836 Q647 829 646 819 L1282 819 L1249 577 Q1244 542 1216 517 Q1188 492 1153 492 L193 492 ZM333 639 L1055 639 L1060 673 L337 673 L333 639 ZM345 553 L1019 553 Q1029 553 1037 559 Q1045 565 1046 575 L1047 584 L325 584 L324 575 Q323 565 329 559 Q335 553 345 553 ZM31 126 Q34 145 47.5 157 Q61 169 80 169 L1220 169 L1216 142 Q1213 122 1199 109.5 Q1185 97 1166 97 L1144 97 L1117 -100 L913 -100 L941 97 L309 97 L254 -27 Q215 -100 143 -100 L19 -100 L106 97 L27 97 L31 126 Z" /><glyph glyph-name="uni4E01" unicode="&#x4e01;" d="M100 808 Q71 808 50 790 Q29 772 24 744 L19 711 L532 711 L433 30 Q430 9 418 -6 Q405 -20 384 -20 L251 -20 Q220 -20 197.5 -39 Q175 -58 170 -88 L168 -100 L526 -100 Q573 -100 611 -68 Q648 -36 655 11 L757 711 L1201 711 Q1231 711 1251.5 729 Q1272 747 1277 775 L1282 808 L100 808 Z" /><glyph glyph-name="uni4E03" unicode="&#x4e03;" d="M90 655 Q71 654 57 641 Q43 628 39 609 L28 527 L195 534 L121 13 Q115 -34 143 -66 Q171 -98 216 -98 L1153 -98 L1155 -86 Q1159 -44 1134.5 -15 Q1110 14 1068 14 L372 14 Q351 14 343 28 Q334 42 337 63 L405 544 L1146 577 Q1190 580 1223 610 Q1256 640 1263 684 L1266 709 L422 671 L447 842 L276 842 Q260 842 247.5 831 Q235 820 233 804 L212 661 L90 655 Z" /><glyph glyph-name="uni4E07" unicode="&#x4e07;" d="M1260 763 Q1257 746 1244.5 734.5 Q1232 723 1217 723 L455 723 L289 112 Q262 20 191 -38 Q120 -96 32 -98 L255 723 L112 723 L124 817 Q126 827 134 834.5 Q142 842 151 842 L1270 842 L1260 763 ZM683 -95 L684 -94 Q684 -94 683 -94 Q683 -95 683 -95 ZM997 525 L452 525 L477 628 L1188 628 Q1198 628 1204 620.5 Q1210 613 1209 602 L1131 13 Q1124 -33 1090 -64 Q1055 -94 1011 -94 L684 -94 Q690 -54 720 -26.5 Q750 1 786 1 L891 1 Q911 1 921 14 Q932 27 934 48 L997 525 Z" /><glyph glyph-name="uni4E08" unicode="&#x4e08;" d="M815 -31 Q899 -100 1000 -100 L1158 -100 L744 294 L1059 661 L1213 661 Q1235 661 1251.5 676 Q1268 691 1271 714 L1275 761 L1136 761 L1200 843 L987 843 Q931 843 901 801 L867 761 L175 761 Q153 761 136.5 746 Q120 731 117 708 L113 661 L790 661 L574 421 L395 590 Q368 615 335 615 L118 615 L435 300 L25 -100 L188 -100 Q310 -100 409 -13 L592 158 L815 -31 Z" /><glyph glyph-name="uni4E09" unicode="&#x4e09;" d="M93 33 Q72 33 54.5 17 Q37 1 34 -23 L24 -99 L1132 -99 Q1156 -99 1174.5 -81.5 Q1193 -64 1197 -38 L1206 33 L93 33 ZM218 839 Q194 839 175.5 821.5 Q157 804 153 779 L145 717 L1204 717 Q1228 717 1246.5 734.5 Q1265 752 1269 778 L1277 839 L218 839 ZM220 468 Q196 468 176.5 450 Q157 432 153 405 L145 346 L1121 346 Q1148 346 1169 365.5 Q1190 385 1194 414 L1201 468 L220 468 Z" /><glyph glyph-name="uni4E0A" unicode="&#x4e0a;" d="M75 6 Q61 6 50.5 -3.5 Q40 -13 38 -28 L29 -101 L1145 -101 Q1163 -101 1176 -89 Q1189 -77 1191 -59 L1199 6 L660 6 L729 513 L1152 513 Q1191 513 1220.5 539 Q1250 565 1256 605 L1258 620 L743 620 L768 798 Q770 815 759 828 Q748 841 731 841 L554 841 L440 6 L75 6 Z" /><glyph glyph-name="uni4E0B" unicode="&#x4e0b;" d="M385 708 L271 -101 L509 -101 Q524 -101 536 -91 Q548 -81 550 -65 L663 708 L1221 708 Q1235 708 1245 716 Q1255 725 1257 739 L1271 843 L89 843 Q70 843 56 830 Q41 817 38 798 L26 708 L385 708 ZM1152 42 L960 504 Q942 537 909 537 L739 537 L907 134 Q953 39 1064 42 L1152 42 Z" /><glyph glyph-name="uni4E0D" unicode="&#x4e0d;" d="M370 727 L19 59 L24 59 Q211 59 324 244 L578 727 L1221 727 Q1240 727 1255 741 Q1270 754 1273 775 L1282 843 L167 843 Q148 843 135 831 Q121 818 118 798 L108 727 L370 727 ZM580 582 L489 -100 L705 -100 L793 647 L651 647 Q625 647 604 629 Q584 611 580 582 ZM859 600 L974 151 Q985 110 1019 84.5 Q1053 59 1096 59 L1205 59 L1066 600 L859 600 Z" /><glyph glyph-name="uni4E0E" unicode="&#x4e0e;" d="M72 252 Q57 252 45.5 241.5 Q34 231 31 215 L20 146 L872 146 Q887 146 899 157 Q911 168 914 183 L924 252 L72 252 ZM339 843 L135 843 L90 511 Q83 466 111 433 Q138 400 182 400 L1024 400 L976 47 Q973 25 957 11 Q941 -3 921 -3 L577 -3 Q552 -3 532.5 -20.5 Q513 -38 509 -64 L504 -100 L1052 -100 Q1096 -100 1132 -67 Q1169 -35 1175 12 L1239 480 Q1240 487 1235.5 491.5 Q1231 496 1225 496 L328 496 Q312 496 303 508 Q295 519 297 533 L339 843 ZM437 770 Q422 770 410.5 759.5 Q399 749 396 733 L388 674 L1210 674 Q1233 674 1251 690.5 Q1269 707 1273 731 L1279 770 L437 770 Z" /><glyph glyph-name="uni4E10" unicode="&#x4e10;" d="M280 700 L133 700 Q104 700 82 680.5 Q60 661 55 631 L20 377 Q14 330 42 297 Q70 264 115 264 L973 264 L943 50 Q940 29 924 14 Q908 0 887 0 L599 0 Q567 0 543 -21 Q519 -42 514 -75 L511 -100 L1027 -100 Q1072 -100 1109 -67 Q1146 -35 1153 13 L1200 358 L730 358 L749 498 L1161 498 Q1186 498 1205 514.5 Q1224 531 1228 557 L1234 598 L763 598 L783 743 L1221 743 Q1241 743 1256.5 756.5 Q1272 770 1275 791 L1282 843 L116 843 Q96 843 80.5 830 Q65 817 62 795 L55 743 L562 743 L509 358 L269 358 Q253 358 244 369 Q235 379 238 396 L280 700 Z" /><glyph glyph-name="uni4E11" unicode="&#x4e11;" d="M87 -4 Q63 -4 45.5 -19.5 Q28 -35 25 -59 L19 -100 L1208 -100 Q1221 -100 1230.5 -91.5 Q1240 -83 1242 -71 L1251 -4 L1152 -4 L1251 717 Q1259 770 1228 806 Q1197 843 1145 843 L199 843 Q184 843 172.5 833 Q161 823 159 808 L150 751 L1006 751 Q1022 751 1031 740 Q1040 729 1037 714 L999 428 L493 428 L582 709 L428 709 Q369 709 343 644 L272 428 L161 428 Q137 428 120 412.5 Q103 397 99 372 L93 331 L249 331 L144 -4 L87 -4 ZM364 -4 L469 331 L985 331 L939 -4 L364 -4 Z" /><glyph glyph-name="uni4E13" unicode="&#x4e13;" d="M1047 -19 L1164 282 Q1169 317 1144 342 Q1122 362 1095 362 L343 362 L393 481 L1178 481 Q1199 481 1215 494 Q1230 508 1234 529 L1239 561 L427 561 L494 709 L1221 709 Q1243 709 1259 723 Q1274 737 1278 758 L1282 789 L529 789 L553 843 L326 843 Q305 843 294 822 L280 789 L128 789 Q111 789 97 779 Q83 767 81 750 L75 709 L246 709 L179 561 L75 561 Q55 561 41 548 Q27 536 24 517 L19 481 L145 481 L94 361 L56 282 L955 282 L840 -3 Q836 -15 826 -22 Q814 -28 802 -28 L391 -28 Q363 -28 361 -3 L353 121 L94 121 L107 -18 Q111 -57 142 -79 Q175 -100 215 -100 L916 -100 Q956 -100 994 -79 Q1032 -58 1047 -19 Z" /><glyph glyph-name="uni4E14" unicode="&#x4e14;" d="M1181 1 L1229 1 L1220 -65 Q1218 -81 1207 -90.5 Q1196 -100 1181 -100 L22 -100 L31 -31 Q33 -17 42.5 -8 Q52 1 65 1 L84 1 L180 715 Q187 769 228 806 Q268 843 319 843 L407 843 L373 590 L1050 590 L1067 713 Q1069 728 1060 739 Q1052 750 1037 750 L443 750 L455 843 L1171 843 Q1221 843 1253 806 Q1283 769 1277 715 L1181 1 ZM971 1 L1000 220 L323 220 L293 1 L971 1 ZM1013 312 L1039 506 L361 506 L335 312 L1013 312 Z" /><glyph glyph-name="uni4E16" unicode="&#x4e16;" d="M88 731 Q77 731 68.5 723.5 Q60 716 58 705 L45 612 L115 612 L30 11 Q24 -36 52 -68 Q80 -99 125 -99 L1156 -99 L1158 -80 Q1162 -44 1141.5 -20 Q1121 4 1086 4 L279 4 Q259 4 250 18 Q242 32 245 53 L323 612 L471 612 L411 182 Q405 137 433 105 Q461 72 506 72 L953 72 Q999 72 1036 105 Q1072 137 1079 182 L1139 612 L1217 612 Q1233 612 1246 623.5 Q1259 635 1262 652 L1273 731 L1156 731 L1172 843 L1000 843 Q985 843 973 832.5 Q961 822 958 806 L948 731 L696 731 L712 843 L535 843 Q522 843 512 834 Q502 825 499 811 L488 731 L340 731 L353 821 L180 821 Q165 821 153.5 810.5 Q142 800 139 785 L132 731 L88 731 ZM819 168 L666 168 Q645 168 633 182 Q621 196 624 217 L680 612 L931 612 L875 217 Q872 196 856 182 Q840 168 819 168 Z" /><glyph glyph-name="uni4E18" unicode="&#x4e18;" d="M1273 827 Q1269 798 1249 779.5 Q1229 761 1203 761 L433 761 L444 843 L1275 843 L1273 827 ZM1054 -18 L1186 -18 L1180 -66 Q1178 -81 1168 -90.5 Q1158 -100 1144 -100 L28 -100 L34 -52 Q37 -37 47 -27.5 Q57 -18 70 -18 L96 -18 L190 716 Q197 769 235 806 Q274 843 323 843 L404 843 L388 723 L385 698 L373 602 L366 547 L355 464 L350 424 L293 -18 L857 -18 L917 448 L398 448 L408 530 L1246 530 L1241 492 Q1239 473 1226 460.5 Q1213 448 1195 448 L1114 448 L1054 -18 Z" /><glyph glyph-name="uni4E19" unicode="&#x4e19;" d="M316 656 L305 574 L300 532 L227 -20 Q222 -55 198.5 -77.5 Q175 -100 143 -100 L19 -100 L111 599 Q114 624 131 640 Q148 656 170 656 L316 656 ZM1278 816 Q1275 792 1258.5 776.5 Q1242 761 1220 761 L780 761 L742 656 L1248 656 L1165 14 Q1158 -34 1124 -67 Q1090 -100 1046 -100 L802 -100 L802 -96 Q807 -62 831 -40 Q855 -18 886 -18 L923 -18 Q943 -18 955 -3 Q967 11 969 32 L1040 574 L706 574 L676 502 L820 502 Q836 502 847.5 492 Q859 482 862 465 L940 50 L900 50 Q832 50 780 96 Q728 142 712 215 L663 473 L523 163 Q462 50 356 50 L268 50 L502 574 L334 574 L344 656 L538 656 L575 761 L122 761 L126 788 Q129 812 145.5 827.5 Q162 843 184 843 L1282 843 L1278 816 Z" /><glyph glyph-name="uni4E1A" unicode="&#x4e1a;" d="M31 -24 L19 -100 L1137 -100 Q1168 -100 1173 -68 L1182 0 L896 0 L1009 843 L875 843 Q847 843 825.5 823.5 Q804 804 800 774 L696 0 L519 0 L632 843 L476 843 Q458 843 443.5 830.5 Q429 818 426 798 L320 0 L61 0 Q35 0 31 -24 ZM80 146 Q78 128 89 115.5 Q100 103 117 103 L258 103 L304 637 Q309 695 276 733 Q243 771 189 771 L140 771 L80 146 ZM981 103 L998 103 Q1068 103 1125 153 Q1182 203 1195 280 L1282 771 L1144 771 Q1126 771 1111.5 758 Q1097 745 1093 725 L981 103 Z" /><glyph glyph-name="uni4E1B" unicode="&#x4e1b;" d="M88 -20 Q64 -20 45 -35.5 Q26 -51 22 -76 L19 -100 L1213 -100 Q1237 -100 1256 -84.5 Q1275 -69 1279 -45 L1282 -20 L88 -20 ZM435 238 Q443 151 505.5 93.5 Q568 36 656 36 L625 576 Q623 594 610.5 606 Q598 618 579 618 L443 618 L514 843 L325 843 Q301 843 291 819 L47 36 Q239 36 325 237 L416 533 L435 238 ZM1061 238 Q1068 151 1131 93.5 Q1194 36 1282 36 L1251 576 Q1250 594 1236.5 606 Q1223 618 1205 618 L1068 618 L1140 843 L951 843 Q927 843 917 819 L674 36 Q865 36 951 237 L1043 533 L1061 238 Z" /><glyph glyph-name="uni4E1C" unicode="&#x4e1c;" d="M818 614 L634 614 Q623 614 614.5 606 Q606 598 604 586 L584 439 L363 439 Q352 439 346 448 Q340 457 344 469 L445 685 L1233 685 Q1246 685 1256.5 695 Q1267 705 1269 719 L1277 781 L492 781 L519 841 L318 841 L289 781 L166 781 Q156 781 148 773 Q140 765 138 754 L129 685 L243 685 L143 476 Q124 430 148 392 Q170 353 215 353 L573 353 L530 30 Q528 9 516 -5 Q504 -19 485 -19 L401 -19 Q375 -19 354 -38 Q333 -57 329 -86 L327 -98 L620 -98 Q663 -98 698 -66 Q732 -33 738 12 L783 353 L1178 353 Q1195 353 1209 365.5 Q1223 378 1225 397 L1231 439 L795 439 L818 614 ZM27 -98 L61 -98 Q134 -98 197.5 -50.5 Q261 -3 290 74 L371 301 L194 301 Q183 301 173.5 294 Q164 287 160 275 L27 -98 ZM951 -12 Q969 -98 1042 -98 L1160 -98 L1125 277 Q1120 301 1100 301 L921 301 L951 -12 Z" /><glyph glyph-name="uni4E1D" unicode="&#x4e1d;" d="M19 -100 L22 -64 Q26 -38 44.5 -20.5 Q63 -3 88 -3 L1188 -3 L1185 -39 Q1181 -66 1162.5 -83 Q1144 -100 1119 -100 L19 -100 ZM117 423 Q104 432 98 448 Q92 463 94 480 Q95 498 106 511 L323 808 Q351 843 390 843 L544 843 L305 511 Q301 506 304 499 Q308 493 313 494 L382 498 L484 624 Q516 661 560 661 L720 661 L330 173 Q325 168 329 161 Q331 155 338 155 L523 164 Q559 164 579.5 137 Q600 110 591 74 L134 55 Q116 54 103 64 Q90 74 84 88 Q78 102 79 119 Q80 135 91 149 L320 423 L150 414 Q130 413 117 423 ZM943 498 L1046 624 Q1078 661 1122 661 L1282 661 L892 173 Q887 168 890 161 Q893 155 900 155 L1085 164 Q1121 164 1141 137 Q1161 110 1153 74 L695 55 Q678 54 665 64 Q652 74 646 88 Q640 102 641 119 Q642 135 653 149 L882 424 L705 414 Q685 413 672 423 Q659 432 653 448 Q647 463 649 480 Q650 498 660 511 L877 808 Q905 843 945 843 L1099 843 L860 511 Q855 506 859 499 Q863 493 869 494 L943 498 Z" /><glyph glyph-name="uni4E22" unicode="&#x4e22;" d="M955 -77 Q956 -87 962.5 -93.5 Q969 -100 979 -100 L1156 -100 L1141 89 Q1136 158 1090.5 203.5 Q1045 249 981 249 L931 249 L947 50 L283 21 Q271 21 265 29 Q258 41 263 52 L408 322 L1158 322 Q1183 322 1202.5 339.5 Q1222 357 1226 384 L1230 411 L740 411 L762 552 L1181 552 Q1202 552 1218.5 566.5 Q1235 581 1238 603 L1243 641 L775 641 L790 761 L1204 761 Q1234 761 1255 780.5 Q1276 800 1280 830 L1282 843 L182 843 Q153 843 132 823.5 Q111 804 107 773 L105 761 L586 761 L571 641 L152 641 Q131 641 115 626.5 Q99 612 96 590 L91 552 L559 552 L538 411 L108 411 Q83 411 63.5 393.5 Q44 376 40 349 L37 322 L195 322 L24 1 Q18 -14 19 -29 Q19 -44 26 -56 Q33 -68 45 -76 Q58 -84 78 -82 L953 -46 L955 -77 Z" /><glyph glyph-name="uni4E24" unicode="&#x4e24;" d="M1272 808 Q1269 788 1255 775 Q1241 762 1223 762 L916 762 L898 678 L1250 678 L1164 13 Q1158 -33 1124 -66 Q1090 -100 1047 -100 L807 -100 Q812 -64 836 -41 Q860 -18 893 -18 L940 -18 Q960 -18 972 -4 Q983 10 986 31 L1059 597 L881 597 L860 497 L959 497 Q972 497 981 487 Q990 477 989 463 L963 31 L913 31 Q872 31 845.5 63 Q819 95 821 140 L845 425 L796 193 Q780 121 728 76 Q676 31 609 31 L717 597 L511 597 L490 497 L597 497 Q606 497 613 489.5 Q620 482 619 471 L593 31 L526 31 Q492 31 469.5 58 Q447 85 450 122 L475 427 L427 195 Q410 122 358 76.5 Q306 31 239 31 L346 597 L316 597 L326 678 L362 678 L378 762 L130 762 L134 797 Q137 817 150.5 830 Q164 843 183 843 L1276 843 L1272 808 ZM733 678 L748 762 L546 762 L528 678 L733 678 ZM304 678 L293 597 L290 571 L211 -41 Q207 -67 189.5 -83.5 Q172 -100 149 -100 L23 -100 L118 640 Q121 656 132.5 667 Q144 678 159 678 L304 678 Z" /><glyph glyph-name="uni4E25" unicode="&#x4e25;" d="M127 794 Q130 816 145 829.5 Q160 843 181 843 L1282 843 L1277 810 Q1274 789 1259 775.5 Q1244 762 1223 762 L981 762 L933 408 L1223 408 L1219 384 Q1216 359 1198 343 Q1180 327 1156 327 L274 327 L231 13 Q225 -34 189 -67 Q152 -100 108 -100 L19 -100 L34 11 L43 82 L88 408 L383 408 L431 762 L123 762 L127 794 ZM726 408 L774 762 L632 762 L584 408 L726 408 ZM1206 447 L1024 447 L1055 600 Q1069 656 1111 691 Q1153 726 1208 726 L1266 726 L1206 447 ZM187 730 Q243 730 281 689 Q319 648 319 588 L310 447 L124 447 L137 730 L187 730 Z" /><glyph glyph-name="uni4E27" unicode="&#x4e27;" d="M512 414 L84 414 Q60 414 44 399 Q27 384 23 361 L19 334 L93 334 L47 10 Q41 -35 68 -68 Q97 -100 141 -100 L529 -100 L530 -96 Q533 -65 514 -43 Q495 -21 465 -21 L292 -21 Q271 -21 263 -7 Q254 7 257 28 L300 334 L1174 334 Q1197 334 1214 349 Q1231 364 1235 387 L1239 414 L748 414 L791 727 L1208 727 Q1236 727 1256 745 Q1276 762 1280 789 L1282 806 L802 806 L808 843 L604 843 Q590 843 580 834 Q570 825 567 811 L567 806 L159 806 Q132 806 112 789 Q92 772 88 744 L86 727 L556 727 L512 414 ZM114 689 L112 448 L320 448 L316 560 Q313 615 274.5 652 Q236 689 182 689 L114 689 ZM694 193 Q675 226 692 257 Q709 288 745 288 L1183 288 L1174 242 Q1171 220 1160 206 Q1153 199 1142 195 Q1131 192 1123 192 L981 192 L1157 -100 L887 -100 L694 193 ZM1126 689 Q1079 689 1042.5 659.5 Q1006 630 995 582 L968 448 L1183 448 L1232 689 L1126 689 Z" /><glyph glyph-name="uni4E2A" unicode="&#x4e2a;" d="M19 453 L199 453 Q241 453 266 497 L376 732 Q381 743 393 749 Q405 754 415 754 L967 754 Q977 754 985 749 Q994 743 996 732 L1044 509 Q1049 484 1068.5 468.5 Q1088 453 1113 453 L1282 453 L1210 771 Q1202 807 1173 825 Q1146 843 1110 843 L291 843 Q256 843 222 825 Q190 807 173 771 L19 453 ZM551 592 L453 -100 L692 -100 L797 648 L614 648 Q590 648 572 632 Q555 617 551 592 Z" /><glyph glyph-name="uni4E2B" unicode="&#x4e2b;" d="M19 843 L171 843 Q259 843 315 769 L508 481 L262 481 L19 843 ZM666 481 L962 790 Q1016 843 1088 843 L1282 843 L924 481 L666 481 ZM382 -100 L455 377 Q459 404 480.5 421 Q502 438 531 438 L701 438 L619 -100 L382 -100 Z" /><glyph glyph-name="uni4E2D" unicode="&#x4e2d;" d="M978 215 Q987 222 991 229 Q987 219 978 211 Q967 202 953 199 Q967 205 978 215 ZM244 230 Q243 231 243 231 Q243 233 242 235 Q243 233 243 231 Q243 231 244 230 ZM787 683 L1269 683 L1201 203 Q1194 161 1158 132 Q1122 96 1077 96 L704 96 L675 -100 L469 -100 L498 96 L125 96 Q81 96 53 128 Q26 160 33 205 L101 683 L307 683 L241 255 Q240 245 242 235 Q243 233 243 231 Q243 231 244 230 Q246 222 251 216 Q257 209 265 203 Q273 197 283 197 L509 197 L570 587 L331 587 L344 683 L581 683 L603 816 Q604 826 611.5 833 Q619 840 629 840 L817 840 L787 683 ZM997 246 L1052 591 L776 591 L715 201 L942 201 Q943 201 945 201 Q949 200 953 201 Q967 204 978 212 Q987 220 991 230 Q996 236 997 246 ZM991 229 Q995 237 997 247 L1052 587 L997 244 Q996 235 991 229 ZM953 199 Q948 197 942 197 Q946 197 950 198 Q952 199 953 199 ZM251 216 Q246 222 244 230 Q246 222 251 216 Z" /><glyph glyph-name="uni4E30" unicode="&#x4e30;" d="M471 -101 L688 -101 Q695 -101 701 -96 Q707 -91 708 -83 L727 61 L1157 61 Q1175 61 1188.5 73 Q1202 85 1205 103 L1212 158 L740 158 L769 371 L1185 371 Q1202 371 1214 382 Q1226 393 1228 410 L1236 468 L782 468 L808 659 L1222 659 Q1241 659 1255.5 672 Q1270 685 1273 705 L1280 756 L821 756 L833 843 L637 843 Q621 843 608.5 832 Q596 821 593 804 L587 756 L163 756 Q148 756 137 746 Q126 736 124 721 L115 659 L574 659 L548 468 L127 468 Q113 468 102.5 458.5 Q92 449 90 435 L81 371 L535 371 L506 158 L79 158 Q60 158 45.5 145 Q31 132 28 112 L21 61 L493 61 L471 -101 Z" /><glyph glyph-name="uni4E32" unicode="&#x4e32;" d="M750 368 L1236 368 L1197 85 Q1190 38 1155 6 Q1119 -26 1073 -26 L695 -26 L685 -100 L481 -100 L491 -26 L113 -26 Q67 -26 40 6 Q13 38 20 85 L59 368 L263 368 L252 288 L227 103 Q224 82 236 68 Q248 54 268 54 L502 54 L534 288 L278 288 L289 368 L545 368 L553 424 L186 424 Q140 424 113 456 Q86 488 92 535 L126 782 L331 782 L320 702 L314 660 L300 554 Q297 533 309 519 Q321 504 341 504 L564 504 L591 702 L346 702 L357 782 L602 782 L604 795 Q607 816 622 829.5 Q637 843 658 843 L815 843 L806 782 L1282 782 L1248 535 Q1242 488 1206 456 Q1170 424 1124 424 L757 424 L750 368 ZM795 702 L768 504 L991 504 Q1011 504 1027 519 Q1043 533 1046 554 L1066 702 L795 702 ZM995 103 L1020 288 L739 288 L706 54 L940 54 Q960 54 976 68 Q992 82 995 103 Z" /><glyph glyph-name="uni4E34" unicode="&#x4e34;" d="M221 -100 L338 794 Q342 816 356.5 829.5 Q371 843 390 843 L530 843 L418 -12 Q412 -51 385.5 -75.5 Q359 -100 324 -100 L221 -100 ZM825 768 L1277 768 L1270 716 Q1268 703 1259 694.5 Q1250 686 1238 686 L1148 686 L1155 426 L1083 426 Q1034 426 998 471.5 Q962 517 960 573 L957 686 L799 686 L770 593 Q699 426 551 426 L521 426 L652 827 Q659 843 672 843 L851 843 L825 768 ZM724 322 L734 396 L1213 396 L1163 13 Q1157 -34 1124 -67 Q1091 -100 1048 -100 L556 -100 Q514 -100 488 -67 Q462 -34 468 13 L518 396 L703 396 L653 13 Q651 0 658 -9 Q664 -17 677 -17 L742 -17 L786 322 L724 322 ZM933 322 L888 -17 L949 -17 Q962 -17 972 -9 Q982 0 985 13 L1025 322 L933 322 ZM27 -50 L131 742 Q134 764 149.5 778.5 Q165 793 186 793 L292 793 L195 54 Q188 8 156.5 -21 Q125 -50 83 -50 L27 -50 Z" /><glyph glyph-name="uni4E38" unicode="&#x4e38;" d="M25 -100 L38 -100 Q236 -100 343 97 L438 310 L850 269 L869 371 L483 411 L601 675 L1049 675 L954 11 Q948 -36 976 -68 Q1005 -100 1051 -100 L1253 -100 L1256 -85 Q1259 -58 1242 -39 Q1225 -20 1199 -20 Q1184 -20 1174 -10 Q1165 1 1167 17 L1272 755 L636 755 L675 843 L472 843 Q448 843 434 819 L405 755 L147 755 L144 734 Q141 710 156 692.5 Q171 675 195 675 L370 675 L260 429 L93 444 Q95 398 124.5 366.5 Q154 335 200 330 L216 329 L25 -100 Z" /><glyph glyph-name="uni4E39" unicode="&#x4e39;" d="M1210 426 L1266 815 Q1267 827 1260 835 Q1253 843 1240 843 L434 843 L422 762 L1042 762 L994 426 L333 426 L393 843 L243 843 Q214 843 193 825 Q172 807 168 779 L117 426 L80 426 Q59 426 43 412 Q26 398 23 376 L19 344 L105 344 L36 -100 L132 -100 Q184 -100 227 -63 Q269 -27 277 26 L322 344 L984 344 L939 32 Q936 10 923 -4 Q910 -18 889 -18 L780 -18 Q749 -18 726 -38 Q702 -59 697 -90 L696 -100 L1021 -100 Q1069 -100 1106 -67 Q1145 -34 1151 13 L1199 344 L1220 344 Q1241 344 1258 358 Q1275 372 1278 394 L1282 426 L1210 426 ZM780 613 L786 478 L609 478 Q593 478 581 489 Q569 500 567 516 L559 716 L669 716 Q713 716 745 687 Q777 658 780 613 Z" /><glyph glyph-name="uni4E3A" unicode="&#x4e3a;" d="M144 833 Q141 798 164 771.5 Q187 745 219 743 L394 735 L405 822 L144 833 ZM33 -98 L74 -98 Q229 -98 328 71 L447 314 L871 260 L876 314 Q879 342 865 362 Q851 382 825 386 L503 429 L583 587 L1050 587 L979 56 Q976 35 964 21 Q953 7 933 7 L785 7 Q765 7 750 -7 Q735 -21 731 -42 L724 -98 L1052 -98 Q1095 -98 1130 -66 Q1165 -34 1172 13 L1270 709 L641 709 L707 841 L494 841 L429 709 L168 709 Q159 709 152 702.5 Q145 696 143 686 L124 587 L371 587 L33 -98 Z" /><glyph glyph-name="uni4E3B" unicode="&#x4e3b;" d="M506 8 L61 8 Q50 8 41 0 Q32 -9 30 -21 L19 -100 L1148 -100 Q1163 -100 1174 -89 Q1185 -79 1188 -64 L1197 8 L741 8 L780 303 L1161 303 Q1178 303 1191 316 Q1204 328 1207 346 L1218 420 L796 420 L829 661 L1213 661 Q1235 661 1253 678 Q1270 694 1274 717 L1282 768 L840 768 L840 794 Q839 816 826 829 Q813 843 793 843 L596 843 L598 768 L214 768 Q188 768 169 750 Q149 732 145 705 L139 661 L593 661 L561 420 L157 420 Q144 420 133 410 Q122 400 120 385 L108 303 L545 303 L506 8 Z" /><glyph glyph-name="uni4E3D" unicode="&#x4e3d;" d="M305 697 L295 615 L290 581 L203 -100 L19 -100 L113 632 Q117 661 136.5 679 Q156 697 181 697 L305 697 ZM891 697 L880 615 L876 581 L788 -100 L604 -100 L698 632 Q703 661 722 679 Q741 697 767 697 L891 697 ZM320 607 L331 697 L664 697 L577 27 Q571 -26 532 -63 Q494 -100 445 -100 L258 -100 Q264 -64 288.5 -40.5 Q313 -17 345 -17 L354 -17 Q368 -17 380 -6 Q392 4 394 21 L429 292 L382 300 Q342 307 319 340 Q296 373 300 417 L301 420 L443 399 L469 607 L320 607 ZM905 607 L917 697 L1249 697 L1163 27 Q1156 -26 1118 -63 Q1079 -100 1030 -100 L844 -100 Q849 -64 873.5 -40.5 Q898 -17 931 -17 L940 -17 Q953 -17 965 -6 Q977 4 979 21 L1014 292 L967 300 Q927 307 904 340 Q881 373 886 417 L886 420 L1028 399 L1055 607 L905 607 ZM127 807 Q130 823 140.5 833 Q151 843 165 843 L1282 843 L1275 787 Q1272 772 1262 762 Q1252 752 1238 752 L120 752 L127 807 Z" /><glyph glyph-name="uni4E3E" unicode="&#x4e3e;" d="M975 583 Q1048 458 1173 458 L1242 458 L1146 640 L1217 640 Q1239 640 1255 654.5 Q1271 669 1275 692 L1279 728 L1196 728 L1235 843 L1081 843 Q1038 843 1015 800 L995 728 L813 728 L805 765 Q799 799 774 821 Q749 843 716 843 L592 843 L606 728 L397 728 L391 765 Q385 799 360.5 821 Q336 843 302 843 L178 843 L192 728 L161 728 Q139 728 123 709.5 Q107 691 104 668 L100 640 L220 640 L74 458 L166 458 Q272 458 348 549 L425 640 L942 640 L975 583 ZM478 -100 L648 -100 Q661 -100 671 -91 Q681 -82 683 -68 L698 37 L1129 37 Q1148 37 1162.5 50 Q1177 63 1180 83 L1187 135 L711 135 L736 316 L1121 316 Q1142 316 1157.5 330 Q1173 344 1176 366 L1183 419 L750 419 L773 591 L665 591 Q625 591 595.5 564.5 Q566 538 559 496 L549 419 L164 419 Q143 419 127 405 Q111 391 108 369 L101 316 L535 316 L510 135 L78 135 Q59 135 44.5 122.5 Q30 110 27 89 L20 37 L497 37 L478 -100 Z" /><glyph glyph-name="uni4E43" unicode="&#x4e43;" d="M23 -100 Q216 -100 308 109 L529 761 L1024 761 L841 410 L1060 410 L1008 32 Q1005 11 993 -4 Q981 -18 960 -18 L819 -18 Q784 -18 758.5 -41 Q733 -64 728 -100 L1088 -100 Q1133 -100 1169 -67 Q1206 -34 1213 13 L1277 491 L1097 491 L1246 761 L1257 843 L201 843 Q180 843 164 828.5 Q148 814 144 791 L140 761 L315 761 L23 -100 Z" /><glyph glyph-name="uni4E45" unicode="&#x4e45;" d="M989 -65 Q1015 -100 1055 -100 L1261 -100 L993 334 L825 334 L1226 667 L1240 759 L541 759 L603 843 L398 843 Q373 843 355 823 L55 433 L121 433 Q276 433 384 555 L483 680 L963 680 L42 -100 L231 -100 Q309 -100 371 -50 L765 284 L989 -65 Z" /><glyph glyph-name="uni4E48" unicode="&#x4e48;" d="M463 814 L30 379 L235 379 Q289 379 330 419 L754 843 L534 843 Q494 843 463 814 ZM1027 -33 L1029 -69 Q1030 -82 1040 -91 Q1049 -100 1063 -100 L1274 -100 L1264 157 Q1260 226 1210 272 Q1160 318 1089 318 L1015 318 L1025 77 L482 50 Q464 50 460 63 Q454 77 467 90 L1105 730 L869 730 Q835 730 810 706 L115 32 Q98 16 93 -3 Q89 -22 93 -38 Q98 -55 112 -66 Q127 -77 150 -76 L1027 -33 Z" /><glyph glyph-name="uni4E49" unicode="&#x4e49;" d="M811 6 Q922 -100 1062 -100 L1157 -100 L765 311 L1279 809 L1055 809 Q1032 809 1013 791 L655 430 L411 728 Q359 809 276 809 L129 809 L521 311 L24 -100 L172 -100 Q274 -100 360 -32 L630 191 L811 6 ZM591 637 L767 637 L778 745 Q781 785 756.5 813.5 Q732 842 695 842 L612 842 L591 637 Z" /><glyph glyph-name="uni4E4B" unicode="&#x4e4b;" d="M1223 651 L360 -47 Q299 -99 226 -99 L17 -99 L972 659 L176 659 Q144 659 125 686 Q105 712 109 750 L111 774 L554 774 L566 842 L730 842 Q757 842 768.5 827 Q780 812 775 793 L771 774 L1230 774 L1223 651 ZM237 -41 L319 84 L1280 13 L1186 -72 Q1143 -103 1092 -100 L237 -41 Z" /><glyph glyph-name="uni4E4C" unicode="&#x4e4c;" d="M942 159 L939 138 Q935 112 916 95.5 Q897 79 871 79 L29 79 Q35 114 60.5 136.5 Q86 159 120 159 L942 159 ZM1058 717 L408 717 L419 796 L572 796 Q575 817 590 830 Q605 843 625 843 L785 843 L778 796 L1275 796 L1238 529 Q1232 483 1195 451 Q1158 419 1113 419 L690 419 Q696 453 721.5 475.5 Q747 498 781 498 L978 498 Q999 498 1015 512 Q1031 526 1034 547 L1058 717 ZM359 351 L1268 351 L1220 11 Q1214 -36 1177 -68 Q1141 -100 1096 -100 L614 -100 Q620 -65 645.5 -42.5 Q671 -20 705 -20 L961 -20 Q982 -20 998 -6 Q1013 8 1016 29 L1050 271 L214 271 Q169 271 142 304 Q114 336 120 382 L178 796 L385 796 L373 717 L369 688 L327 387 Q325 372 334 362 Q343 351 359 351 Z" /><glyph glyph-name="uni4E4D" unicode="&#x4e4d;" d="M1277 722 Q1272 690 1248.5 669.5 Q1225 649 1194 649 L759 649 L736 488 L1228 488 L1224 461 Q1219 429 1195.5 408.5 Q1172 388 1141 388 L723 388 L696 200 L1188 200 L1184 172 Q1179 141 1155.5 120.5 Q1132 100 1101 100 L682 100 L654 -100 L425 -100 L530 649 L337 649 L297 536 Q236 405 112 405 L19 405 L167 843 L400 843 L368 754 L1282 754 L1277 722 Z" /><glyph glyph-name="uni4E4E" unicode="&#x4e4e;" d="M86 363 Q66 363 51.5 349 Q37 335 33 314 L29 280 L523 280 L490 34 Q487 12 475 -2 Q462 -17 442 -17 L330 -17 Q296 -17 271 -40 Q246 -63 240 -100 L569 -100 Q613 -100 650 -67 Q686 -34 693 15 L728 280 L1175 280 Q1195 280 1210 294 Q1225 308 1229 329 L1233 363 L739 363 L792 760 L1203 760 Q1230 760 1249.5 777.5 Q1269 795 1273 823 L1276 842 L189 842 Q162 842 141.5 823.5 Q121 805 117 776 L115 760 L587 760 L534 363 L86 363 ZM135 462 Q136 445 146.5 434 Q157 423 172 423 L334 423 L332 524 Q329 602 278 655 Q227 708 154 708 L131 708 L135 462 ZM959 423 L1128 423 Q1150 423 1160 448 L1235 708 L1178 708 Q1055 708 1000 569 L959 423 Z" /><glyph glyph-name="uni4E4F" unicode="&#x4e4f;" d="M141 843 Q113 843 92.5 825.5 Q72 808 68 781 L65 762 L1209 762 Q1232 762 1249.5 776.5 Q1267 791 1270 814 L1275 843 L141 843 ZM1213 575 L1219 686 L767 686 L771 703 Q776 720 764 733 Q753 747 726 747 L564 747 L553 686 L116 686 L114 664 Q110 630 129 606 Q148 582 180 582 L965 582 L23 -99 L229 -99 Q301 -99 361 -52 L1213 575 ZM240 -47 L1083 -100 Q1134 -103 1176 -75 L1269 2 L321 65 L240 -47 Z" /><glyph glyph-name="uni4E50" unicode="&#x4e50;" d="M1142 315 Q1165 315 1179.5 299 Q1194 283 1191 260 L1184 213 L770 213 L736 -27 Q731 -59 707.5 -79.5 Q684 -100 652 -100 L512 -100 L556 213 L330 213 L345 315 L571 315 L613 619 Q617 642 633.5 657.5 Q650 673 673 673 L834 673 L785 315 L1142 315 ZM1229 794 Q1232 771 1217.5 754.5 Q1203 738 1180 738 L390 738 L300 213 L153 213 Q120 213 99 237 Q78 261 83 295 L178 841 L1221 841 L1229 794 ZM90 -100 L157 162 L353 162 L306 -32 Q278 -100 213 -100 L90 -100 ZM1022 162 Q1086 162 1114 94 L1136 -100 L940 -100 L898 162 L1022 162 Z" /><glyph glyph-name="uni4E52" unicode="&#x4e52;" d="M1262 843 Q1257 807 1232 784.5 Q1207 762 1174 762 L446 762 L457 843 L1262 843 ZM1085 236 L1235 236 L1231 205 Q1228 183 1212.5 169 Q1197 155 1177 155 L55 155 L59 187 Q62 208 77.5 222 Q93 236 113 236 L139 236 L204 720 Q211 772 250 808 Q290 843 339 843 L419 843 L403 725 L401 708 L389 617 L1272 617 L1269 593 Q1265 568 1247.5 552 Q1230 536 1207 536 L1125 536 L1085 236 ZM883 236 L923 536 L378 536 L337 236 L883 236 ZM26 -100 L155 96 Q170 117 193 117 L369 117 L286 -11 Q222 -100 125 -100 L26 -100 Z" /><glyph glyph-name="uni4E53" unicode="&#x4e53;" d="M883 117 L1058 117 Q1087 117 1101 87 L1175 -100 L1109 -100 Q981 -100 915 33 L883 117 ZM1085 236 L1241 236 L1237 207 Q1233 184 1216.5 169.5 Q1200 155 1179 155 L23 155 L27 185 Q31 207 47 221.5 Q63 236 85 236 L110 236 L178 720 Q185 772 225 808 Q266 843 317 843 L399 843 L383 725 L379 699 L368 616 L1279 616 Q1273 580 1247.5 557.5 Q1222 535 1187 535 L1127 535 L1085 236 ZM877 236 L918 535 L356 535 L315 236 L877 236 ZM1269 843 Q1263 808 1237.5 785 Q1212 762 1177 762 L427 762 L439 843 L1269 843 Z" /><glyph glyph-name="uni4E54" unicode="&#x4e54;" d="M797 -100 L969 -100 Q983 -100 994 -90.5 Q1005 -81 1007 -66 L1053 270 L1226 270 L1114 568 L1222 568 Q1241 568 1255.5 580.5 Q1270 593 1273 613 L1278 648 L504 648 L578 763 L1196 763 Q1227 763 1249.5 783 Q1272 803 1277 834 L1278 843 L213 843 Q188 843 168.5 826 Q149 809 145 783 L143 763 L363 763 L289 648 L143 648 Q125 648 111 636 Q97 624 94 605 L89 568 L236 568 L39 270 L201 270 L20 -100 L72 -100 Q213 -100 293 41 L434 335 L303 335 L452 568 L897 568 L977 339 L900 339 Q881 339 867.5 326.5 Q854 314 851 295 L797 -100 Z" /><glyph glyph-name="uni4E56" unicode="&#x4e56;" d="M192 -64 L395 -64 L472 506 L320 506 Q298 506 281.5 490.5 Q265 475 261 452 L155 452 Q123 452 99.5 430.5 Q76 409 71 375 L66 341 L246 341 L220 141 L99 116 Q37 100 25 35 L19 -13 L204 25 L192 -64 ZM481 -100 L703 -100 L792 562 L1201 562 Q1227 562 1247 579.5 Q1267 597 1271 625 L1277 673 L807 673 L817 747 L1198 747 Q1229 747 1251.5 767.5 Q1274 788 1279 820 L1282 843 L224 843 Q194 843 172 823 Q150 803 145 772 L142 747 L595 747 L585 673 L176 673 Q149 673 129.5 655 Q110 637 106 609 L99 562 L570 562 L481 -100 ZM1016 62 L1047 289 L1158 311 Q1227 329 1241 402 L1245 432 L1061 396 L1076 509 L934 509 Q908 509 888.5 491.5 Q869 474 865 447 L807 16 Q802 -20 823 -46 Q844 -72 879 -72 L1196 -72 Q1200 -32 1176.5 -3.5 Q1153 25 1116 25 L1047 25 Q1033 25 1023 36 Q1014 47 1016 62 Z" /><glyph glyph-name="uni4E58" unicode="&#x4e58;" d="M19 -100 L146 -100 Q232 -100 293 -25 L453 187 L235 187 L19 -100 ZM472 -98 L708 -98 L802 609 L1215 609 Q1234 609 1248.5 622.5 Q1263 636 1267 657 L1272 699 L814 699 L822 762 L1227 762 Q1246 762 1260 775 Q1274 788 1277 808 L1282 843 L201 843 Q182 843 168 830 Q154 817 151 797 L146 762 L586 762 L577 699 L174 699 Q154 699 139.5 686 Q125 673 122 652 L116 609 L565 609 L472 -98 ZM135 345 Q83 331 73 275 L69 243 L263 283 L256 233 L444 233 L490 582 L341 582 Q324 582 312 571 Q300 560 297 542 L297 537 L149 537 Q131 537 118 525 Q105 513 102 494 L96 447 L285 447 L275 373 L135 345 ZM910 1 Q969 -100 1069 -100 L1165 -100 L1023 179 L819 179 L910 1 ZM1055 504 L1066 582 L913 582 Q898 582 887 571.5 Q876 561 873 545 L841 305 Q837 269 857 243 Q878 218 912 218 L1206 218 L1209 243 Q1212 270 1196 289.5 Q1180 309 1155 309 L1065 309 Q1051 309 1041 320 Q1032 331 1034 346 L1042 400 L1183 434 Q1238 450 1248 508 L1254 550 L1055 504 Z" /><glyph glyph-name="uni4E5D" unicode="&#x4e5d;" d="M39 -99 Q132 -99 212 -43 Q292 13 329 104 L546 641 L1020 641 L934 24 Q927 -27 957 -63 Q987 -99 1038 -99 L1245 -99 L1247 -87 Q1250 -58 1233.5 -38.5 Q1217 -19 1188 -19 L1184 -19 Q1169 -19 1160 -8 Q1150 2 1152 18 L1249 709 Q1251 725 1241.5 736 Q1232 747 1217 747 L580 747 L618 841 L432 841 Q422 841 414 835.5 Q406 830 402 821 L372 747 L188 747 Q174 747 162 736.5 Q150 726 148 711 L138 641 L338 641 L39 -99 Z" /><glyph glyph-name="uni4E5E" unicode="&#x4e5e;" d="M113 630 L248 630 Q304 630 335 689 L345 710 L1206 710 Q1228 710 1244.5 725 Q1261 740 1265 764 L1268 791 L380 791 L404 843 L230 843 Q210 843 199 823 L113 630 ZM340 15 L1179 480 L1190 565 L129 565 L125 536 Q123 515 135 499.5 Q147 484 166 484 L881 484 L78 42 Q52 27 39 3 Q27 -21 28 -44 Q28 -66 42 -83 Q55 -100 79 -100 L1150 -100 L1151 -89 Q1154 -60 1137.5 -39.5 Q1121 -19 1095 -19 L346 -19 Q333 -19 331 -5 Q330 1 332 7 Q333 12 340 15 Z" /><glyph glyph-name="uni4E5F" unicode="&#x4e5f;" d="M87 695 Q73 694 62 684 Q52 674 49 659 L39 592 L107 597 L20 -13 Q15 -49 37 -74 Q60 -100 97 -100 L1215 -100 L1194 -43 Q1174 -2 1133 -2 L275 -2 Q260 -2 250 9 Q241 20 243 35 L325 612 L580 629 L500 69 L591 69 Q645 69 684 103 Q724 137 733 189 L798 644 L1039 662 Q1047 663 1052 661 Q1057 659 1056 652 L990 192 Q988 177 978 167 Q964 155 948 155 L891 155 Q870 155 853 141 Q837 127 834 105 L829 74 L1100 74 Q1138 74 1167 100 Q1197 125 1202 161 L1281 706 Q1286 742 1262 762 Q1239 781 1202 778 L813 748 L826 843 L666 843 Q642 843 624 827 Q606 812 603 789 L595 732 L340 714 L355 817 L176 817 Q160 817 148 806 Q137 796 133 780 L122 698 L87 695 Z" /><glyph glyph-name="uni4E60" unicode="&#x4e60;" d="M1167 13 L1276 793 Q1279 814 1266.5 828.5 Q1254 843 1232 843 L162 843 Q150 843 140 834.5 Q130 826 128 813 L118 738 L1013 738 L916 43 Q914 28 901 17 Q888 6 873 6 L667 6 Q638 6 615.5 -14 Q593 -34 588 -63 L583 -100 L1038 -100 Q1086 -100 1123 -67 Q1160 -33 1167 13 ZM124 650 Q118 604 143 571 Q168 538 214 531 L765 468 L776 543 Q777 558 769.5 568 Q762 578 748 580 L124 650 ZM89 75 Q39 51 30 -1 L20 -85 L696 213 Q729 229 735 263 L748 365 L89 75 Z" /><glyph glyph-name="uni4E61" unicode="&#x4e61;" d="M517 291 L1177 779 L887 779 L673 636 L453 636 Q441 635 440 641 Q439 647 450 656 L703 838 L464 838 L186 647 Q166 631 157 608 Q149 586 152 566 Q155 547 170 534 Q184 520 211 520 L517 520 L162 272 Q142 257 133 235 Q125 212 129 193 Q133 173 149 159 Q165 143 194 143 L870 143 L806 40 Q799 30 790 23 Q780 16 768 16 L144 16 Q89 10 59.5 -23.5 Q30 -57 24 -99 L907 -99 Q944 -99 976 -78 Q1009 -58 1029 -22 L1278 408 L1091 408 Q1036 408 998 354 L941 260 L525 260 Q514 259 510 271 Q508 283 517 291 Z" /><glyph glyph-name="uni4E66" unicode="&#x4e66;" d="M347 -100 L529 -100 Q540 -100 549 -92.5 Q558 -85 559 -74 L611 293 L992 293 L957 45 Q955 32 946 23 Q936 15 922 15 L796 15 Q780 15 767 4 Q754 -7 752 -24 L746 -65 L1056 -65 Q1096 -65 1129 -36 Q1162 -7 1168 33 L1214 362 Q1216 381 1205.5 393.5 Q1195 406 1177 406 L1049 406 L1088 681 Q1093 717 1072 742 Q1050 767 1015 767 L687 767 L698 843 L508 843 Q496 843 487 835 Q478 827 476 815 L469 767 L153 767 Q143 767 135.5 760.5 Q128 754 126 744 L116 672 L456 672 L418 406 L59 406 Q49 406 41 399 Q33 392 31 381 L19 293 L403 293 L347 -100 ZM890 647 L856 406 L633 406 L670 672 L869 672 Q878 672 885 664 Q891 657 890 647 ZM1146 613 Q1147 600 1156 592 Q1165 584 1178 584 L1281 584 L1265 782 Q1263 804 1248 817.5 Q1233 831 1211 831 L1128 831 L1146 613 Z" /><glyph glyph-name="uni4E70" unicode="&#x4e70;" d="M822 22 Q900 -100 1043 -100 L1154 -100 L954 186 L1145 186 Q1172 186 1192.5 204.5 Q1213 223 1218 251 L1226 300 L686 300 L856 685 L651 685 Q617 685 601 652 L427 300 L99 300 Q72 300 51.5 282 Q31 264 27 235 L19 186 L332 186 L69 -100 L239 -100 Q343 -100 419 -18 L600 186 L722 186 L822 22 ZM123 843 L117 813 Q112 783 128 762 Q144 741 172 741 L1010 741 Q1023 741 1030 732 Q1036 723 1034 709 L1015 616 L1254 616 L1280 742 Q1289 783 1267 813 Q1245 843 1204 843 L123 843 ZM112 675 L109 651 Q105 619 121.5 596 Q138 573 168 570 L454 542 L486 640 L112 675 ZM77 500 Q73 465 90 433 Q107 401 140 397 L395 372 L425 468 L77 500 Z" /><glyph glyph-name="uni4E71" unicode="&#x4e71;" d="M581 757 L561 622 L788 622 L784 590 Q780 569 763.5 555.5 Q747 542 725 542 L549 542 L524 377 L748 377 L696 26 Q689 -25 646 -61 Q603 -96 549 -96 L118 -96 Q64 -96 39 -61 Q14 -25 21 26 L73 377 L285 377 L274 304 L271 288 L230 9 Q228 -4 238 -14 Q247 -21 258 -21 L445 -21 Q457 -21 468 -15 Q481 -6 484 9 L527 304 L294 304 L305 377 L307 391 L329 542 L94 542 L98 573 Q102 594 118.5 608 Q135 622 157 622 L341 622 L361 757 L137 757 L142 792 Q145 812 160.5 824.5 Q176 837 196 837 L808 837 L804 806 Q800 785 783 771 Q766 757 744 757 L581 757 ZM1020 -12 L1201 -12 Q1238 -12 1262 -38 Q1286 -64 1282 -100 L879 -100 Q825 -100 793 -64 Q761 -29 768 23 L889 843 L1109 843 L988 25 Q986 10 995 -1 Q1005 -12 1020 -12 Z" /><glyph glyph-name="uni4E73" unicode="&#x4e73;" d="M158 838 Q143 838 132.5 829 Q122 820 119 807 L112 759 L759 759 Q790 759 813 778 Q836 797 841 826 L843 839 L158 838 ZM101 227 Q71 226 49.5 208 Q28 190 23 161 L19 136 L274 142 L256 21 Q254 7 241 -4 Q228 -15 211 -15 L141 -15 Q112 -15 89.5 -33.5 Q67 -52 63 -80 L60 -95 L343 -95 Q393 -95 432 -63 Q471 -30 478 15 L497 148 L672 153 Q702 154 723.5 172 Q745 190 750 218 L754 244 L544 238 L751 369 L765 463 L81 463 Q77 430 99 406.5 Q121 383 155 383 L483 383 L292 265 L287 232 L101 227 ZM102 507 L291 507 L295 588 Q296 649 253 691.5 Q210 734 147 734 L115 734 L102 507 ZM356 507 L543 507 L547 588 Q549 649 506 691.5 Q463 734 400 734 L368 734 L356 507 ZM575 507 L762 507 L821 734 L745 734 Q695 734 657 705.5 Q619 677 606 631 L575 507 ZM871 -100 L1281 -100 Q1287 -56 1257 -23.5 Q1227 9 1180 9 L1007 9 Q993 9 984 20 Q975 31 977 46 L1096 843 L892 842 L769 23 Q766 -3 771 -25 Q777 -47 791 -64 Q805 -81 826 -90 Q847 -100 871 -100 Z" /><glyph glyph-name="uni4E7E" unicode="&#x4e7e;" d="M616 -100 Q589 -100 574 -87 Q559 -74 555 -53 Q551 -33 559 -8 Q566 16 585 38 L1009 538 L703 538 Q679 538 664 556 Q649 574 652 600 L654 618 L1248 618 L1241 567 Q1234 517 1202 479 L798 4 Q790 -3 790 -11 Q790 -20 799 -20 L1118 -20 Q1148 -20 1167 -43 Q1186 -66 1183 -98 L1183 -100 L616 -100 ZM1282 800 L1279 778 Q1275 750 1255.5 732.5 Q1236 715 1211 715 L876 715 L874 709 Q854 666 814 666 L653 666 L713 838 L922 838 L907 800 L1282 800 ZM23 67 Q27 88 41.5 101.5 Q56 115 76 115 L197 115 L207 189 L151 189 Q110 189 87 221 Q63 254 69 299 L121 688 L293 688 L300 736 L117 736 L122 768 Q125 789 140 803 Q155 817 175 817 L311 817 Q312 828 320.5 835.5 Q329 843 340 843 L471 843 L468 817 L650 817 L646 785 Q643 763 628 749.5 Q613 736 593 736 L457 736 L451 688 L628 688 L577 299 Q573 277 562 257 Q552 236 536 221 Q520 206 501 197 Q482 189 461 189 L405 189 L395 115 L562 115 L558 83 Q555 62 540 48.5 Q525 35 506 35 L384 35 L366 -100 L168 -100 L186 35 L19 35 L23 67 ZM293 607 L278 495 L415 495 L430 607 L293 607 ZM267 415 L251 293 Q250 283 255 276 Q260 270 270 270 L363 270 Q372 270 380 276 Q387 283 388 293 L404 415 L267 415 Z" /><glyph glyph-name="uni4E86" unicode="&#x4e86;" d="M520 533 L448 34 Q446 17 433 9 Q419 0 400 0 L260 0 Q215 0 182 -28 Q149 -56 142 -100 L528 -100 Q577 -100 619 -69 Q660 -38 669 19 L732 463 L1253 737 L1268 843 L134 843 Q96 843 67 818.5 Q38 794 32 756 L30 745 L912 745 L520 533 Z" /><glyph glyph-name="uni4E88" unicode="&#x4e88;" d="M100 574 Q72 574 50.5 556.5 Q29 539 25 511 L23 498 L527 498 L457 14 Q455 -1 442 -12 Q430 -23 413 -23 L292 -23 Q258 -23 232.5 -44.5 Q207 -66 201 -100 L539 -100 Q586 -100 625 -67 Q664 -34 671 11 L741 498 L1042 498 Q1051 498 1058 491 Q1065 483 1064 473 L1014 176 L1178 176 Q1198 176 1213 188 Q1228 200 1231 219 L1276 488 Q1281 524 1259 549 Q1236 574 1199 574 L1035 574 L1260 768 L1271 843 L100 843 Q96 812 116.5 789 Q137 766 169 766 L998 766 L795 574 L494 574 L472 630 Q423 727 327 727 L221 727 L279 574 L100 574 Z" /><glyph glyph-name="uni4E89" unicode="&#x4e89;" d="M1193 219 L1208 327 L1225 327 Q1233 327 1240 333 Q1247 339 1249 348 L1259 423 L1221 423 L1249 624 L1111 624 L1200 727 L1211 801 L412 801 L442 844 L245 844 Q228 844 216 829 L87 649 L231 649 Q297 649 347 711 L357 725 L979 725 L897 624 L143 624 Q132 624 123 616 Q114 608 112 597 L103 528 L528 528 L513 423 L75 423 Q65 423 56.5 415.5 Q48 408 47 397 L37 327 L499 327 L481 196 L83 196 Q72 196 63 188.5 Q54 181 52 169 L44 108 L468 108 L457 23 Q454 9 443 -2 Q431 -13 415 -13 L240 -13 Q228 -13 218.5 -21.5 Q209 -30 207 -42 L200 -97 L538 -97 Q583 -97 620 -65 Q657 -32 663 13 L677 108 L1067 108 Q1113 108 1150 140 Q1186 172 1193 219 ZM1018 528 L1003 423 L721 423 L736 528 L1018 528 ZM935 196 L689 196 L707 327 L990 327 L977 233 Q974 217 962 206 Q949 196 935 196 Z" /><glyph glyph-name="uni4E8B" unicode="&#x4e8b;" d="M1221 731 L771 731 L768 703 L1225 703 L1205 556 Q1200 516 1169 487 Q1137 458 1098 458 L734 458 L729 421 L1187 421 L1166 266 L1201 266 L1193 205 Q1191 196 1184.5 190 Q1178 184 1170 184 L1155 184 L1149 141 Q1142 94 1106 62 Q1068 30 1024 30 L676 30 L672 4 Q670 -18 660.5 -33.5 Q651 -49 634 -65 Q600 -98 556 -98 L306 -98 L309 -81 Q313 -57 330.5 -41 Q348 -25 370 -25 L440 -25 Q455 -25 467 -12 Q469 -10 470 -9 Q474 -6 476 -3 Q478 0 479 6 L482 30 L33 30 L43 100 Q44 109 51 115 Q58 121 66 121 L495 121 L503 184 L28 184 L35 237 Q37 249 46.5 257.5 Q56 266 68 266 L514 266 L523 330 L83 330 L92 398 Q94 408 101 414.5 Q108 421 118 421 L535 421 L540 458 L201 458 Q163 458 140 487 Q116 516 122 556 L142 703 L336 703 L326 631 L326 629 L324 616 L324 612 L316 555 Q315 545 321 538 Q328 530 337 530 L550 530 L564 631 L344 631 L354 703 L574 703 L578 731 L111 731 L119 794 Q121 806 130 814 Q139 822 150 822 L590 822 Q592 829 598.5 834.5 Q605 840 613 840 L786 840 L784 822 L1277 822 L1270 776 Q1267 757 1253 744 Q1239 731 1221 731 ZM957 156 L961 184 L697 184 L688 121 L915 121 Q929 121 942 130 Q955 141 957 156 ZM981 330 L717 330 L708 266 L972 266 L981 330 ZM1022 631 L758 631 L744 530 L982 530 Q991 530 1001 538 Q1010 545 1011 555 L1022 631 Z" /><glyph glyph-name="uni4E8E" unicode="&#x4e8e;" d="M689 14 L740 377 L1193 377 Q1214 377 1229.5 391 Q1245 405 1249 426 L1258 495 L757 495 L790 735 L1241 735 Q1253 735 1262 743 Q1271 751 1273 763 L1285 843 L151 843 Q130 843 114.5 829.5 Q99 816 96 795 L88 735 L578 735 L544 495 L77 495 Q57 495 42.5 482 Q28 469 25 449 L14 377 L528 377 L480 34 Q475 3 445 3 L254 3 Q234 3 218.5 -10 Q203 -23 199 -44 L191 -100 L559 -100 Q607 -100 645 -66 Q682 -33 689 14 Z" /><glyph glyph-name="uni4E8F" unicode="&#x4e8f;" d="M1153 356 L323 356 L382 520 L1201 520 Q1223 520 1239 533.5 Q1255 547 1258 568 L1263 601 L84 601 Q63 601 47 587.5 Q31 574 28 553 L23 520 L168 520 L77 274 L952 274 L914 12 Q912 -1 902 -10 Q892 -19 878 -19 L498 -19 Q462 -19 435 -41.5 Q408 -64 402 -100 L1016 -100 Q1058 -100 1092 -71 Q1127 -41 1132 0 L1179 326 Q1180 338 1172.5 347 Q1165 356 1153 356 ZM139 842 Q119 842 104 829.5 Q89 817 85 796 L80 761 L1215 761 Q1236 761 1251 774 Q1266 787 1269 807 L1274 842 L139 842 Z" /><glyph glyph-name="uni4E91" unicode="&#x4e91;" d="M949 -54 Q951 -74 965 -87 Q979 -100 998 -100 L1152 -100 L1122 203 Q1115 264 1072 303.5 Q1029 343 971 343 L908 343 L941 51 L262 13 Q249 11 244 19 Q239 28 243 36 L452 454 L1197 454 Q1218 454 1233.5 468 Q1249 482 1252 503 L1258 544 L123 544 Q102 544 86 530 Q70 516 67 494 L61 454 L244 454 L26 7 Q17 -11 20 -28 Q23 -46 34 -60 Q53 -87 90 -85 L948 -29 L949 -54 ZM185 844 Q165 844 149.5 830.5 Q134 817 130 795 L125 754 L1216 754 Q1237 754 1252.5 768 Q1268 782 1272 803 L1277 844 L185 844 Z" /><glyph glyph-name="uni4E92" unicode="&#x4e92;" d="M374 241 Q373 237 372 233 Q373 237 374 241 ZM1091 0 L1211 0 L1199 -68 Q1197 -82 1187 -91 Q1177 -100 1164 -100 L18 -100 L30 -37 Q32 -21 43.5 -10.5 Q55 0 71 0 L876 0 L897 114 L212 114 Q175 114 154 143 Q131 172 143 212 L265 736 L149 736 L158 802 Q161 819 173 830 Q185 841 201 841 L1285 841 L1275 773 Q1272 757 1261 746.5 Q1250 736 1235 736 L487 736 L374 241 Q373 237 372 233 Q372 221 379 212 Q386 200 404 200 L914 200 L969 471 Q969 471 969 471 Q972 487 964 499 Q954 510 939 510 L462 510 L483 603 L1090 603 Q1137 603 1164 566 Q1190 528 1181 479 L1091 0 ZM379 212 Q372 221 372 233 Q372 221 379 212 ZM969 471 Q972 487 964 499 Q954 510 939 510 Q954 510 964 499 Q972 487 969 471 Z" /><glyph glyph-name="uni4E94" unicode="&#x4e94;" d="M67 1 Q55 1 44.5 -9 Q34 -19 32 -33 L24 -99 L1135 -99 Q1153 -99 1168 -85 Q1183 -71 1186 -51 L1192 1 L1092 1 L1148 443 Q1153 480 1133 507 Q1113 533 1079 533 L534 533 L598 743 L1225 743 Q1241 743 1254 755 Q1267 767 1270 786 L1277 843 L202 843 Q188 843 177 832.5 Q166 822 163 806 L155 743 L376 743 L312 533 L151 533 Q139 533 129.5 524 Q120 515 118 501 L109 425 L283 425 L145 1 L67 1 ZM910 386 L861 1 L371 1 L505 425 L880 425 Q894 425 903 414 Q912 403 910 386 Z" /><glyph glyph-name="uni4E95" unicode="&#x4e95;" d="M812 -100 L966 -100 Q987 -100 1002.5 -86 Q1018 -72 1022 -50 L1053 179 L1147 179 Q1172 179 1191 196 Q1210 213 1214 240 L1219 275 L1066 275 L1118 656 L1216 656 Q1235 656 1248.5 668 Q1262 680 1265 700 L1272 751 L1131 751 L1144 842 L986 842 Q967 842 952.5 829 Q938 816 935 796 L929 751 L472 751 L494 842 L326 842 Q311 842 299 832.5 Q287 823 283 808 L269 751 L160 751 Q141 751 127.5 739 Q114 727 111 708 L104 656 L248 656 L154 275 L99 275 Q73 275 54.5 258 Q36 241 31 215 L27 179 L133 179 L63 -100 L66 -100 Q154 -100 223 -45 Q292 10 316 99 L335 179 L850 179 L812 -100 ZM357 275 L451 656 L916 656 L863 275 L357 275 Z" /><glyph glyph-name="uni4E9A" unicode="&#x4e9a;" d="M79 -17 Q59 -17 44.5 -31 Q30 -45 26 -67 L22 -100 L1115 -100 Q1135 -100 1149.5 -86 Q1164 -72 1168 -50 L1172 -17 L893 -17 L994 761 L1221 761 Q1240 761 1255 775 Q1270 789 1273 811 L1277 843 L196 843 Q176 843 161.5 829 Q147 815 144 794 L139 761 L412 761 L311 -17 L79 -17 ZM84 147 Q83 130 93 117.5 Q103 105 118 105 L257 105 L294 517 Q298 583 259 629.5 Q220 676 161 676 L132 676 L84 147 ZM502 -17 L603 761 L803 761 L702 -17 L502 -17 ZM982 105 L1121 105 Q1138 105 1150 116 Q1162 127 1165 145 L1256 676 L1205 676 Q1150 676 1108.5 638.5 Q1067 601 1056 541 L982 105 Z" /><glyph glyph-name="uni4E9B" unicode="&#x4e9b;" d="M96 311 Q88 311 81 304.5 Q74 298 72 289 L62 207 L669 219 Q678 219 685 225.5 Q692 232 694 242 L704 324 L576 320 L616 646 L701 646 Q713 646 722.5 655 Q732 664 734 677 L745 756 L630 756 L641 839 L488 839 Q472 839 460 828 Q448 817 446 800 L384 317 L279 315 L341 807 L210 807 Q196 807 185.5 797 Q175 787 173 772 L115 311 L96 311 ZM67 6 Q54 6 43.5 -3.5 Q33 -13 31 -28 L23 -100 L1142 -100 Q1156 -100 1166.5 -90 Q1177 -80 1179 -65 L1188 6 L67 6 ZM117 148 Q102 148 89.5 136 Q77 124 74 107 L68 53 L1128 53 Q1141 53 1151 62.5 Q1161 72 1164 86 L1171 148 L117 148 ZM1006 840 L835 840 Q825 840 817.5 832.5 Q810 825 808 815 L745 318 Q739 271 765 239 Q791 207 835 207 L1203 207 L1205 215 Q1209 256 1186.5 284 Q1164 312 1127 312 L973 312 Q960 312 951 324 Q942 335 944 350 L980 647 L1236 668 Q1247 669 1255.5 677 Q1264 685 1265 697 L1277 782 L995 760 L1006 840 Z" /><glyph glyph-name="uni4EA1" unicode="&#x4ea1;" d="M249 18 L343 690 L1203 690 Q1224 690 1239.5 703.5 Q1255 717 1258 738 L1263 770 L760 770 L771 844 L613 844 Q590 844 573 829 Q556 814 552 791 L549 770 L94 770 Q73 770 57.5 756.5 Q42 743 39 722 L34 690 L132 690 L34 -13 Q28 -49 50 -74 Q73 -100 109 -100 L1095 -100 L1099 -71 Q1101 -50 1087.5 -34.5 Q1074 -19 1053 -19 L281 -19 Q266 -19 256 -8 Q247 3 249 18 Z" /><glyph glyph-name="uni4EA2" unicode="&#x4ea2;" d="M1282 778 L1276 742 Q1273 723 1258.5 710.5 Q1244 698 1224 698 L45 698 L49 733 Q52 753 67 765.5 Q82 778 102 778 L563 778 L564 790 Q568 813 585.5 828 Q603 843 626 843 L785 843 L775 778 L1282 778 ZM346 631 L257 -2 Q250 -42 217 -71 Q183 -100 142 -100 L19 -100 L137 631 L346 631 ZM1092 -20 L1132 -20 Q1149 -20 1159 -31.5 Q1169 -43 1167 -59 L1161 -100 L946 -100 Q905 -100 879 -71 Q855 -42 860 -2 L939 555 L416 555 Q401 555 391 566 Q381 577 383 593 L389 631 L1117 631 Q1134 631 1145.5 618.5 Q1157 606 1154 589 L1071 4 Q1070 -5 1077 -13 Q1082 -20 1092 -20 Z" /><glyph glyph-name="uni4EA4" unicode="&#x4ea4;" d="M752 162 L1157 408 L1002 408 Q924 408 855 370 L634 238 L454 375 Q411 405 361 405 L166 405 L494 167 L27 -100 L164 -100 Q284 -100 392 -47 L617 79 L814 -52 Q865 -87 908.5 -94.5 Q952 -102 1010 -100 Q1027 -100 1046 -100 L1141 -100 L752 162 ZM138 434 L540 539 L472 645 L247 588 Q192 572 163 526 Q134 481 138 434 ZM816 788 L830 843 L626 843 Q600 843 582 837 Q564 831 555 809 L551 788 L199 788 Q171 788 155 772 Q138 757 133 736 L120 684 L1203 684 Q1223 684 1240 694 Q1256 703 1259 720 L1272 788 L816 788 ZM1183 428 Q1205 472 1183 514 Q1162 555 1107 573 L854 645 L789 537 L1183 428 Z" /><glyph glyph-name="uni4EA5" unicode="&#x4ea5;" d="M27 -25 L162 -25 Q251 -25 321 38 L953 639 L776 639 Q728 639 691 606 L561 482 L389 476 Q376 474 376 480 Q375 485 385 495 L618 720 L1211 720 Q1231 720 1245.5 732.5 Q1260 745 1264 765 L1269 799 L805 799 L811 842 L633 842 Q618 842 607 832.5 Q596 823 594 809 L592 799 L132 799 Q113 799 98 786.5 Q83 774 80 754 L75 720 L389 720 L175 516 Q156 498 147 476 Q138 454 141 435 Q144 416 159 403 Q174 391 203 392 L477 402 L27 -25 ZM947 42 Q1011 -97 1147 -97 L1203 -97 L1058 259 L968 259 L1179 454 L1001 454 Q953 454 916 421 L359 -100 L495 -100 Q583 -100 653 -37 L880 176 L947 42 Z" /><glyph glyph-name="uni4EA6" unicode="&#x4ea6;" d="M341 592 L189 592 Q179 592 171.5 586 Q164 580 162 570 L25 -100 Q102 -100 161 -49.5 Q220 1 238 81 L341 592 ZM877 10 L969 700 L1219 700 Q1242 700 1258.5 715.5 Q1275 731 1279 755 L1282 780 L813 780 Q815 806 799.5 824.5 Q784 843 760 843 L623 843 L615 780 L197 780 Q175 780 158.5 764.5 Q142 749 138 725 L135 700 L457 700 L268 -100 L355 -100 Q404 -100 441.5 -69 Q479 -38 491 12 L654 700 L772 700 L680 17 Q678 1 666 -10 Q655 -20 641 -20 Q610 -20 586.5 -41 Q563 -62 558 -95 L558 -100 L758 -100 Q801 -100 836 -68 Q871 -36 877 10 ZM1208 548 Q1209 567 1197.5 579.5 Q1186 592 1168 592 L1036 592 L1003 85 Q1001 8 1048.5 -46 Q1096 -100 1167 -100 L1208 548 Z" /><glyph glyph-name="uni4EA7" unicode="&#x4ea7;" d="M1148 672 L1077 490 L1240 490 L1231 421 Q1228 401 1213 387 Q1198 374 1179 374 L295 374 L245 9 Q238 -37 203 -69 Q167 -101 123 -101 L19 -101 L100 490 L278 490 L264 672 L408 672 Q459 672 475 614 L481 490 L866 490 L924 645 Q940 672 964 672 L1148 672 ZM794 797 L1282 797 L1276 749 Q1272 728 1255 713 Q1239 698 1219 698 L105 698 L111 747 Q114 768 131 782 Q147 797 167 797 L591 797 Q594 816 609 829 Q624 843 643 843 L800 843 L794 797 Z" /><glyph glyph-name="uni4EA9" unicode="&#x4ea9;" d="M1282 781 L1277 746 Q1273 722 1256 707 Q1239 692 1215 692 L67 692 L72 726 Q76 750 93 765.5 Q110 781 134 781 L576 781 L585 843 L732 843 Q756 843 772 824.5 Q788 806 785 781 L1282 781 ZM331 637 L1219 637 L1134 25 Q1127 -28 1087 -64 Q1047 -100 995 -100 L122 -100 Q70 -100 40 -64 Q10 -28 17 25 L103 637 L298 637 L286 554 L281 516 L255 332 L514 332 L545 554 L319 554 L331 637 ZM466 -16 L502 243 L243 243 L211 15 Q209 3 217 -6 Q225 -16 238 -16 L466 -16 ZM938 15 L969 243 L710 243 L674 -16 L903 -16 Q915 -16 925 -7 Q936 2 938 15 ZM981 332 L1012 554 L753 554 L723 332 L981 332 Z" /><glyph glyph-name="uni4EAB" unicode="&#x4eab;" d="M1034 602 L344 602 L353 674 L1242 674 L1220 507 Q1214 467 1182 438 Q1150 409 1111 409 L183 409 Q144 409 120 438 Q96 467 101 507 L124 674 L323 674 L313 602 L309 576 L300 506 Q299 496 305 489 Q311 481 320 481 L994 481 Q1003 481 1011 489 Q1019 496 1021 506 L1034 602 ZM750 160 L749 157 L1196 157 L1192 129 Q1188 106 1171.5 91.5 Q1155 77 1133 77 L739 77 L730 17 Q727 -10 714 -32 Q702 -53 684 -68 Q666 -84 644 -92 Q622 -100 599 -100 L280 -100 L283 -77 Q287 -51 306 -34.5 Q325 -18 350 -18 L478 -18 Q495 -18 507 -10 Q520 -2 522 16 L530 77 L19 77 L23 104 Q26 127 42.5 142 Q59 157 81 157 L541 157 L548 206 L872 294 L113 294 Q89 294 73.5 312.5 Q58 331 61 356 L63 374 L1217 374 L1211 330 Q1203 288 1164 275 L750 160 ZM801 793 L1282 793 L1278 764 Q1275 742 1259 727.5 Q1243 713 1221 713 L106 713 L110 742 Q113 764 129 778.5 Q145 793 167 793 L598 793 L605 843 L758 843 Q778 843 790.5 828.5 Q803 814 801 793 Z" /><glyph glyph-name="uni4EAC" unicode="&#x4eac;" d="M807 792 L1275 792 L1272 774 Q1268 747 1249.5 730 Q1231 713 1206 713 L132 713 L135 731 Q139 758 157.5 775 Q176 792 201 792 L611 792 L617 843 L766 843 Q785 843 797 828 Q809 813 807 792 ZM25 -98 L159 204 Q176 236 207 236 L363 236 L289 72 Q198 -98 35 -98 L25 -98 ZM908 236 L1064 236 Q1078 236 1089 226.5 Q1100 217 1103 202 L1157 -98 L1123 -98 Q1056 -98 1004.5 -53.5 Q953 -9 939 63 L908 236 ZM1160 308 Q1129 280 1091 280 L734 280 L699 11 Q693 -35 658 -67 Q624 -100 580 -100 L350 -100 Q356 -64 380.5 -41.5 Q405 -19 438 -19 L474 -19 Q502 -19 506 11 L542 280 L190 280 Q152 280 129 308 Q106 337 111 377 L149 662 L342 662 L332 590 L326 544 L304 377 Q302 367 308 360 Q314 353 324 353 L977 353 Q987 353 994 360 Q1002 367 1004 377 L1032 590 L369 590 L379 662 L1234 662 L1197 377 Q1191 337 1160 308 Z" /><glyph glyph-name="uni4EAD" unicode="&#x4ead;" d="M338 619 L348 691 L1234 691 L1211 519 Q1205 479 1173 450 Q1141 421 1101 421 L177 421 Q137 421 113 450 Q89 479 94 519 L118 691 L319 691 L309 619 L299 548 L295 518 Q294 508 300 501 Q306 493 316 493 L982 493 Q992 493 1000 501 Q1008 508 1010 518 L1024 619 L338 619 ZM794 806 L1282 806 L1275 762 Q1273 746 1262 736.5 Q1251 727 1236 727 L92 727 L98 771 Q100 786 111.5 796 Q123 806 138 806 L590 806 L595 843 L763 843 Q777 843 786.5 832 Q796 821 794 806 ZM24 174 Q27 193 40.5 205.5 Q54 218 73 218 L1192 218 L1187 182 Q1184 163 1170 150.5 Q1156 138 1137 138 L713 138 L695 10 Q689 -35 652 -67 Q616 -100 572 -100 L195 -100 L197 -85 Q202 -57 222.5 -38.5 Q243 -20 271 -20 L461 -20 Q490 -20 494 9 L512 138 L19 138 L24 174 ZM119 385 L247 385 L228 253 L24 253 L31 303 Q36 338 60 362 Q85 385 119 385 ZM1153 385 Q1187 385 1206 362 Q1225 338 1220 303 L1213 253 L1008 253 L1013 291 Q1014 298 1010 304 Q1006 309 999 309 L269 309 L281 385 L1153 385 Z" /><glyph glyph-name="uni4EAE" unicode="&#x4eae;" d="M326 505 Q325 500 327 497 Q329 494 332 490 Q332 490 332 490 Q335 486 340 485 Q345 484 349 484 L948 484 Q958 484 966 490 Q970 493 972.5 496.5 Q975 500 976 505 L988 600 L384 600 L395 679 L1198 679 L1175 506 Q1169 465 1136 435 Q1103 405 1064 405 L212 405 Q173 405 150 435 Q128 465 134 506 L157 679 L349 679 L326 505 ZM1192 337 Q1210 315 1205 280 L1201 248 L1003 248 L1005 267 Q1005 271 1004 275 Q1003 279 1000 282 Q998 285 994.5 287 Q991 289 988 289 L271 289 L280 360 L1141 360 Q1174 360 1192 337 ZM1270 808 L1263 761 Q1261 748 1251 738.5 Q1241 729 1228 729 L103 729 L108 764 Q111 783 125 795.5 Q139 808 157 808 L589 808 L593 840 L769 840 Q782 840 789.5 831 Q797 822 795 808 L1270 808 ZM252 360 L234 248 L30 248 L35 280 Q40 315 65 337 Q90 360 123 360 L252 360 ZM1059 -14 Q1067 -21 1076 -21 L1115 -21 Q1130 -21 1139 -31.5 Q1148 -42 1146 -58 L1141 -100 L938 -100 Q899 -100 873 -72 Q848 -44 853 -4 L876 150 L361 150 L371 230 L1085 230 L1053 2 Q1052 -7 1059 -14 ZM341 230 L307 -4 Q302 -44 270 -72 Q238 -100 200 -100 L85 -100 L142 230 L341 230 Z" /><glyph glyph-name="uni4EB2" unicode="&#x4eb2;" d="M709 9 L739 232 L1152 232 Q1172 232 1187.5 246 Q1203 260 1206 281 L1213 322 L752 322 L763 405 L1210 405 Q1222 405 1231 413.5 Q1240 422 1242 434 L1250 482 L1109 482 L1158 668 L1014 668 Q992 668 973 653 Q954 638 947 614 L913 482 L424 482 L423 605 Q423 633 405 650.5 Q387 668 360 668 L227 668 L230 482 L114 482 Q102 483 94 476.5 Q86 470 85 457 L77 405 L545 405 L534 322 L119 322 Q103 322 90 310 Q77 298 74 281 L67 232 L521 232 L491 9 Q487 -20 459 -20 L392 -20 Q375 -20 361.5 -32 Q348 -44 345 -63 L340 -100 L589 -100 Q634 -100 668 -68 Q703 -36 709 9 ZM172 787 Q160 787 151 779 Q142 771 140 759 L131 700 L1235 700 Q1246 700 1255 708.5 Q1264 717 1266 729 L1275 787 L809 787 L811 811 Q812 824 805 833 Q798 842 785 842 L616 842 L610 787 L172 787 ZM25 -99 L109 -99 Q204 -99 242 -13 L328 182 L170 182 Q150 182 140 160 L25 -99 ZM952 -29 Q972 -99 1034 -99 L1153 -99 L1109 141 Q1102 181 1067 181 L917 181 L952 -29 Z" /><glyph glyph-name="uni4EBF" unicode="&#x4ebf;" d="M412 843 L280 575 L339 575 L238 -63 Q235 -79 222 -89 Q210 -100 194 -100 L22 -100 L118 494 L19 494 L183 820 Q196 843 221 843 L412 843 ZM1206 843 Q1227 843 1235.5 825 Q1244 807 1232 790 L645 61 Q629 40 639 28 Q650 16 676 16 L1245 16 Q1263 16 1274 5 Q1284 -7 1282 -24 L1268 -98 L408 -98 Q367 -98 349.5 -62 Q332 -26 357 9 L949 734 L521 734 L542 817 Q544 828 554 835 Q563 843 575 843 L1206 843 Z" /><glyph glyph-name="uni4EC0" unicode="&#x4ec0;" d="M54 -95 L224 -95 Q243 -95 257 -83.5 Q271 -72 274 -53 L364 567 L302 567 L452 843 L252 843 Q227 843 212 821 L26 492 L139 492 L54 -95 ZM663 -100 L876 -100 L950 411 L1210 411 Q1231 411 1246.5 424 Q1262 437 1265 458 L1273 510 L965 510 L1012 837 L875 837 Q842 837 817.5 816.5 Q793 796 788 764 L751 510 L487 510 Q469 510 455.5 498.5 Q442 487 439 469 L430 411 L737 411 L663 -100 Z" /><glyph glyph-name="uni4EC1" unicode="&#x4ec1;" d="M25 -100 L193 -100 Q212 -100 226.5 -88 Q241 -76 244 -57 L331 551 L263 551 L402 843 L229 843 Q187 843 164 803 L22 511 L113 511 L25 -100 ZM391 17 Q369 17 353.5 3 Q338 -11 335 -32 L329 -80 L1116 -80 Q1140 -80 1157.5 -64.5 Q1175 -49 1179 -25 L1184 17 L391 17 ZM536 795 Q512 795 493.5 780 Q475 765 471 741 L462 690 L1200 690 Q1224 690 1242 705 Q1260 720 1264 743 L1273 795 L536 795 Z" /><glyph glyph-name="uni4EC5" unicode="&#x4ec5;" d="M48 -100 L214 -100 Q232 -100 245.5 -88.5 Q259 -77 262 -58 L351 576 L292 576 L418 843 L238 843 Q205 843 186 811 L34 500 L132 500 L48 -100 ZM829 33 Q930 -99 1081 -99 L1164 -99 L911 287 L1260 751 L1271 831 L514 831 Q497 831 484.5 820 Q472 809 470 793 L464 751 L1021 751 L808 461 L722 635 Q688 694 629 694 L457 694 L670 289 L338 -99 L431 -99 Q579 -99 689 17 L774 113 L829 33 Z" /><glyph glyph-name="uni4EC6" unicode="&#x4ec6;" d="M163 463 L61 -100 L265 -100 Q285 -100 299 -89 Q314 -79 317 -62 L423 528 L331 528 L506 841 L316 841 Q261 841 226 799 L19 463 L163 463 ZM789 778 L645 -100 L905 -100 L974 335 L1272 170 L1281 243 Q1287 289 1270.5 319.5 Q1254 350 1202 381 L999 496 L1059 843 L881 843 Q846 843 820 825 Q794 806 789 778 Z" /><glyph glyph-name="uni4EC7" unicode="&#x4ec7;" d="M30 -100 L182 -100 Q215 -100 239 -81 Q263 -62 269 -31 L366 600 L301 600 L435 843 L251 843 Q204 843 176 801 L19 524 L127 524 L30 -100 ZM1060 -99 L1252 -99 L1256 -70 Q1258 -49 1244.5 -34 Q1231 -19 1208 -19 Q1192 -19 1181 -8 Q1171 3 1173 18 L1282 725 L893 725 L935 842 L734 842 Q711 842 701 820 L666 725 L512 725 Q500 725 491 718 Q482 711 480 700 L472 645 L639 645 L370 -99 Q575 -99 670 100 L865 645 L1042 645 L947 24 Q939 -28 972 -63 Q1004 -99 1060 -99 Z" /><glyph glyph-name="uni4ECA" unicode="&#x4eca;" d="M416 762 L966 762 Q981 762 985 748 L1064 466 L1282 466 L1192 787 Q1181 812 1160 827 Q1139 843 1109 843 L290 843 Q260 843 236 827 Q210 812 193 787 L19 466 L235 466 L392 748 Q401 762 416 762 ZM722 -100 L1189 274 Q1204 287 1210 306 L1231 385 L48 385 L47 373 Q44 338 66 313 Q88 288 122 288 L852 288 L364 -100 L722 -100 ZM541 453 L754 453 L794 636 Q794 657 781 671 Q768 685 748 685 L583 685 L541 453 Z" /><glyph glyph-name="uni4ECB" unicode="&#x4ecb;" d="M425 760 L1000 760 Q1016 760 1020 746 L1079 519 L1247 519 Q1264 519 1274.5 533 Q1285 547 1280 563 L1225 785 Q1216 812 1194 827 Q1173 842 1143 842 L305 842 Q275 842 249 827 Q223 812 207 785 L91 561 Q83 545 89.5 532 Q96 519 112 519 L283 519 L401 746 Q409 760 425 760 ZM21 -100 L41 -100 Q124 -100 194 -46.5 Q264 7 290 91 L401 465 L225 465 Q210 465 197 455.5 Q184 446 179 430 L21 -100 ZM883 -100 L1048 -100 Q1068 -100 1083.5 -86 Q1099 -72 1103 -51 L1175 465 L1003 465 Q986 465 972.5 453.5 Q959 442 957 424 L883 -100 Z" /><glyph glyph-name="uni4ECD" unicode="&#x4ecd;" d="M253 843 L450 843 L314 575 L375 575 L271 -63 Q268 -79 255 -89.5 Q242 -100 226 -100 L49 -100 L147 493 L45 493 L214 819 Q228 843 253 843 ZM1137 506 L1251 791 Q1258 810 1247 825.5 Q1236 841 1216 841 L556 841 Q539 841 526.5 830.5 Q514 820 511 804 L506 767 L607 767 L362 -100 Q554 -100 636 102 L826 767 L1010 767 L897 479 Q891 462 901 447.5 Q911 433 930 433 L1021 433 L960 14 Q958 -4 944 -12 Q931 -20 912 -20 L827 -20 Q804 -20 787 -34.5 Q770 -49 766 -71 L762 -100 L1039 -100 Q1089 -100 1131 -69 Q1173 -37 1181 19 L1245 461 Q1247 479 1235 492.5 Q1223 506 1204 506 L1137 506 Z" /><glyph glyph-name="uni4ECE" unicode="&#x4ece;" d="M425 -43 Q426 -68 444 -84 Q462 -100 489 -100 L635 -100 L614 528 L425 528 L518 843 L328 843 Q315 843 304.5 835.5 Q294 828 290 815 L19 -100 L64 -100 Q139 -100 202 -54 Q265 -8 289 66 L404 456 L425 -43 ZM1073 -64 Q1074 -80 1085 -90 Q1096 -100 1113 -100 L1282 -100 L1264 528 L1077 528 L1168 843 L988 843 Q971 843 957 832.5 Q943 822 937 806 L669 -100 L769 -100 Q821 -100 864.5 -68.5 Q908 -37 924 13 L1054 453 L1073 -64 Z" /><glyph glyph-name="uni4ED1" unicode="&#x4ed1;" d="M1204 783 L1282 554 L1061 554 L995 742 Q991 756 974 756 L386 756 Q369 756 361 742 L246 554 L25 554 L163 784 Q180 811 206 827 Q233 843 264 843 L1121 843 Q1151 843 1173 827 Q1195 811 1204 783 ZM345 321 L1227 444 L1224 422 Q1207 336 1121 319 L330 208 L345 321 ZM89 507 L308 507 L246 61 Q243 39 257 24 Q271 10 293 10 L1131 10 Q1166 10 1188 -15.5 Q1210 -41 1206 -77 L1203 -100 L124 -100 Q75 -100 44 -67 Q14 -34 20 13 L89 507 Z" /><glyph glyph-name="uni4ED3" unicode="&#x4ed3;" d="M281 -16 L1114 -16 Q1147 -16 1168.5 -40.5 Q1190 -65 1186 -100 L130 -100 Q76 -100 44 -62 Q13 -25 20 29 L94 556 L311 556 L300 472 L295 441 L238 35 Q235 13 248 -1 Q260 -16 281 -16 ZM974 472 L330 472 L342 556 L1202 556 L1149 177 Q1142 128 1104 94 Q1067 61 1018 61 L598 61 Q604 97 631 120.5 Q658 144 694 144 L870 144 Q890 144 911 159 Q931 174 934 196 L974 472 ZM356 745 L269 630 Q245 602 213 602 L26 602 L158 785 Q177 811 203 827 Q227 843 258 843 L1114 843 Q1144 843 1164 827 Q1185 811 1198 785 L1282 602 L1094 602 Q1063 602 1046 632 L989 745 Q983 759 968 759 L380 759 Q365 759 356 745 Z" /><glyph glyph-name="uni4ED4" unicode="&#x4ed4;" d="M44 -99 L211 -99 Q231 -99 245.5 -86.5 Q260 -74 263 -54 L354 576 L294 576 L422 843 L252 843 Q206 843 180 799 L30 501 L130 501 L44 -99 ZM497 504 Q470 504 450.5 487 Q431 470 426 444 L424 424 L728 424 L669 17 Q667 1 655 -10 Q643 -20 627 -20 L607 -20 Q579 -20 558 -38 Q537 -56 532 -83 L530 -100 L753 -100 Q801 -100 838 -68 Q875 -36 882 10 L941 424 L1200 424 Q1227 424 1246.5 441 Q1266 458 1271 484 L1273 504 L953 504 L956 528 L1243 747 L1255 829 L519 829 Q516 797 537 773.5 Q558 750 590 750 L991 750 L748 564 L740 504 L497 504 Z" /><glyph glyph-name="uni4ED6" unicode="&#x4ed6;" d="M447 699 L416 696 Q404 695 394 685 Q385 675 382 660 L373 590 L433 595 L357 -10 Q352 -46 372 -71 Q392 -97 425 -97 L1232 -97 L1235 -75 Q1239 -38 1218 -12 Q1198 14 1167 14 L584 14 Q570 14 562 25 Q554 36 556 51 L625 610 L755 626 L685 71 L750 71 Q797 71 832 105 Q867 137 875 195 L931 646 L1082 668 Q1089 669 1094 667 Q1098 665 1097 658 L1040 195 Q1038 180 1029 170 Q1017 158 1002 158 L930 158 Q911 158 897 144 Q882 130 879 108 L875 77 L1114 77 Q1147 77 1173 103 Q1199 128 1204 164 L1273 727 Q1278 763 1257 783 Q1236 802 1204 799 L946 755 L957 843 L832 843 Q810 843 794 828 Q778 812 776 789 L769 732 L639 715 L652 818 L495 818 Q480 818 470 808 Q460 797 457 781 L447 699 ZM217 830 L395 830 L272 566 L327 566 L232 -63 Q230 -79 218.5 -89.5 Q207 -100 192 -100 L32 -100 L120 485 L28 485 L181 806 Q194 830 217 830 Z" /><glyph glyph-name="uni4ED7" unicode="&#x4ed7;" d="M39 -99 L196 -99 Q217 -99 233.5 -84.5 Q250 -70 253 -48 L343 591 L284 591 L407 841 L230 841 Q195 841 176 808 L27 515 L125 515 L39 -99 ZM809 19 Q910 -100 1053 -100 L1144 -100 L869 283 L1133 684 L1201 684 Q1226 684 1244.5 700.5 Q1263 717 1267 742 L1270 764 L1175 764 L1225 843 L1038 843 Q1005 843 984 813 L952 764 L501 764 Q476 764 457.5 748 Q439 732 435 706 L432 684 L909 684 L751 436 L679 576 Q647 628 592 628 L425 628 L618 276 L310 -100 L395 -100 Q534 -100 639 8 L736 114 L809 19 Z" /><glyph glyph-name="uni4ED8" unicode="&#x4ed8;" d="M35 -100 L239 -100 L332 582 L283 582 L409 841 L238 841 Q195 841 170 799 L22 506 L121 506 L35 -100 ZM1073 10 L1165 649 L1219 649 Q1239 649 1254.5 662 Q1270 675 1273 695 L1278 733 L1176 733 L1192 843 L1023 843 Q1005 843 992 831.5 Q979 820 976 802 L966 733 L495 733 Q475 733 460 720 Q445 707 441 687 L437 649 L955 649 L864 16 Q862 1 850 -10 Q838 -21 822 -21 L719 -21 Q690 -21 669 -39 Q648 -57 643 -86 L641 -100 L946 -100 Q992 -100 1030 -68 Q1067 -35 1073 10 ZM431 473 L430 469 Q413 424 433.5 392 Q454 360 492 347 L794 250 L820 349 L431 473 Z" /><glyph glyph-name="uni4ED9" unicode="&#x4ed9;" d="M235 843 L424 843 L293 574 L352 574 L251 -65 Q248 -81 236 -91 Q224 -101 208 -101 L37 -101 L132 493 L33 493 L196 819 Q210 843 235 843 ZM1122 737 L1275 737 L1172 8 Q1165 -38 1129 -70 Q1092 -101 1045 -101 L459 -101 Q414 -101 387 -70 Q359 -38 366 8 L461 681 Q465 705 483 721 Q501 737 525 737 L672 737 L571 18 Q571 13 572.5 9.5 Q574 6 578 2 Q585 -4 595 -4 L666 -4 L775 772 Q779 799 799.5 817 Q820 835 847 835 L987 835 L869 -4 L938 -4 Q943 -4 947 -2.5 Q951 -1 954 2 Q958 6 959.5 9.5 Q961 13 962 18 L1055 679 Q1059 704 1077.5 720.5 Q1096 737 1122 737 Z" /><glyph glyph-name="uni4EE3" unicode="&#x4ee3;" d="M194 843 L416 843 L286 566 L347 566 L251 -99 L39 -99 L123 487 L19 487 L194 843 ZM1136 820 Q1197 820 1219 759 L1240 687 L1033 687 L997 820 L1136 820 ZM1282 670 L1271 592 Q1269 582 1261 575 Q1253 568 1243 568 L929 568 L1140 -100 L1002 -100 Q919 -100 886 -20 L700 568 L417 568 L428 643 Q430 655 439 662.5 Q448 670 460 670 L671 670 L636 787 Q631 805 643.5 820 Q656 835 675 835 L850 835 L899 670 L1282 670 Z" /><glyph glyph-name="uni4EE4" unicode="&#x4ee4;" d="M396 760 L962 760 Q976 760 982 746 L1024 627 Q1061 549 1137 549 L1271 549 L1188 786 Q1178 811 1157 827 Q1136 843 1105 843 L276 843 Q247 843 220 828 Q194 812 176 786 L30 549 L181 549 Q244 549 283 605 L371 746 Q381 760 396 760 ZM1203 373 L1214 456 L96 456 Q80 456 68.5 446 Q57 436 54 420 L48 373 L971 373 L760 2 Q755 -8 745 -13 Q735 -17 725 -17 L373 -17 Q363 -17 354 -13 Q345 -9 344 -1 L311 151 Q302 189 272 213 Q242 237 203 237 L110 237 L168 -45 Q175 -74 199 -89 Q209 -94 220.5 -96 Q232 -98 249 -99 Q252 -99 254 -100 L858 -100 Q891 -100 924 -86 Q959 -70 973 -39 L1203 373 ZM540 504 L763 504 L770 616 Q772 657 745.5 685 Q719 713 679 713 L555 713 L540 504 Z" /><glyph glyph-name="uni4EE5" unicode="&#x4ee5;" d="M171 843 Q162 843 155 837.5 Q148 832 147 823 L28 17 Q20 -37 53 -68 Q86 -100 136 -100 L450 -100 Q455 -57 426.5 -26 Q398 5 355 5 L283 5 Q244 5 249 38 L368 843 L171 843 ZM411 720 L409 706 Q401 651 429.5 605 Q458 559 513 539 L701 473 L717 578 Q719 593 711 605.5 Q703 618 689 623 L411 720 ZM995 74 Q1069 -98 1237 -98 L1267 -98 L1129 340 Q1112 379 1074 379 L946 379 L1172 843 L989 843 Q958 843 941 814 L490 -98 Q689 -98 801 90 L917 321 L995 74 Z" /><glyph glyph-name="uni4EEA" unicode="&#x4eea;" d="M37 -98 L200 -98 Q219 -98 233.5 -85 Q248 -72 252 -53 L342 593 L284 593 L407 843 L234 843 Q195 843 172 805 L26 517 L124 517 L37 -98 ZM867 -20 Q925 -100 1014 -100 L1154 -100 L900 308 L1274 843 L1111 843 Q1060 843 1027 797 L964 700 L959 757 Q955 794 929 818.5 Q903 843 866 843 L758 843 L780 659 L933 659 L810 489 L697 791 Q672 843 621 843 L445 843 L654 320 L300 -100 L369 -100 Q527 -100 644 25 L754 151 L867 -20 Z" /><glyph glyph-name="uni4EEC" unicode="&#x4eec;" d="M489 698 L696 698 L691 775 Q689 802 669.5 820 Q650 838 623 838 L480 838 L489 698 ZM367 -99 L574 -99 L680 648 L520 648 Q499 648 484 635 Q469 622 466 602 L367 -99 ZM1169 10 L1284 822 L771 822 L759 734 L1064 734 L963 16 Q961 0 949 -10 Q936 -20 922 -20 L883 -20 Q862 -20 846.5 -34 Q831 -48 827 -69 L823 -99 L1045 -99 Q1090 -99 1127 -67 Q1163 -35 1169 10 ZM226 842 L415 842 L285 574 L344 574 L243 -63 Q240 -79 228 -89.5 Q216 -100 200 -100 L29 -100 L124 493 L26 493 L188 818 Q202 842 226 842 Z" /><glyph glyph-name="uni4EF0" unicode="&#x4ef0;" d="M620 831 L610 759 L607 740 L517 108 Q514 93 523 82 Q533 72 549 72 L614 72 Q633 72 645 58.5 Q657 45 655 26 L648 -21 L419 -21 Q394 -21 373 -12 Q352 -2 338 15 Q324 31 318 53 Q312 75 315 101 L420 831 L620 831 ZM151 814 Q168 843 199 843 L382 843 L261 559 L332 559 L238 -100 L33 -100 L121 515 L19 515 L151 814 ZM1259 799 Q1288 768 1281 721 L1193 107 Q1190 83 1177 61 Q1164 38 1145 22 Q1126 5 1103 -4 Q1079 -14 1054 -14 L890 -14 L878 -100 L678 -100 L784 636 Q788 665 810 683.5 Q832 702 861 702 L993 702 L901 61 L955 61 Q986 61 991 91 L1080 711 Q1082 726 1072 737 Q1062 748 1047 748 L850 748 Q830 748 817 762.5 Q804 777 807 797 L812 831 L1184 831 Q1231 831 1259 799 ZM625 747 L638 831 L770 831 L764 794 Q761 773 745.5 760 Q730 747 709 747 L625 747 Z" /><glyph glyph-name="uni4EF2" unicode="&#x4ef2;" d="M169 792 Q199 843 251 843 L413 843 L282 552 L341 552 L248 -96 L36 -96 L119 476 L19 476 L169 792 ZM976 770 L1282 770 L1192 145 Q1185 98 1148 67 Q1111 35 1065 35 L871 35 L852 -100 L640 -100 L659 35 L464 35 Q417 35 389 67 Q361 98 368 145 L458 770 L670 770 L658 690 L652 646 L583 169 Q580 148 593 134 Q605 120 626 120 L671 120 L753 690 L687 690 L698 770 L764 770 L767 789 Q771 812 789 827.5 Q807 843 831 843 L987 843 L976 770 ZM984 169 L1058 690 L965 690 L883 120 L927 120 Q948 120 964 134 Q981 148 984 169 Z" /><glyph glyph-name="uni4EF6" unicode="&#x4ef6;" d="M30 -100 L206 -100 Q222 -100 233.5 -90 Q245 -80 247 -65 L336 551 L268 551 L406 843 L224 843 Q191 843 172 810 L26 511 L117 511 L30 -100 ZM647 -100 L817 -100 Q835 -100 849 -88 Q863 -76 866 -58 L909 244 L1145 244 Q1180 244 1206 266.5 Q1232 289 1238 323 L921 323 L970 668 L1184 668 Q1220 668 1246 690.5 Q1272 713 1278 747 L982 747 L995 843 L831 843 Q810 843 794.5 829.5 Q779 816 776 796 L769 747 L690 747 L720 816 L534 816 Q511 816 499 793 L381 521 L499 521 Q585 521 631 607 L656 668 L758 668 L708 323 L444 323 Q409 323 382.5 301 Q356 279 350 244 L697 244 L647 -100 Z" /><glyph glyph-name="uni4EF7" unicode="&#x4ef7;" d="M173 799 Q199 843 245 843 L418 843 L286 568 L347 568 L255 -65 Q253 -80 241 -90 Q229 -100 214 -100 L35 -100 L121 492 L19 492 L173 799 ZM899 -99 L982 468 Q988 502 1014.5 524.5 Q1041 547 1076 547 L1209 547 L1115 -99 L899 -99 ZM359 -99 L520 547 L735 547 L621 87 Q599 4 531.5 -47.5 Q464 -99 377 -99 L359 -99 ZM1246 775 L1282 586 L1062 586 L1033 733 Q1028 760 1000 760 L773 760 Q745 760 732 733 L661 586 L440 586 L532 775 Q544 804 570 821 Q596 839 627 839 L1169 839 Q1199 839 1221 821 Q1242 804 1246 775 Z" /><glyph glyph-name="uni4EFB" unicode="&#x4efb;" d="M46 -100 L255 -100 L343 529 L284 529 L417 843 L226 843 Q203 843 191 820 L26 453 L124 453 L46 -100 ZM428 20 Q408 20 392.5 6 Q377 -8 374 -28 L366 -84 L1111 -84 Q1122 -84 1131.5 -75.5 Q1141 -67 1143 -55 L1154 20 L874 20 L925 382 L1173 382 Q1198 382 1217.5 399 Q1237 416 1241 441 L1247 485 L940 485 L974 729 L1153 732 Q1197 734 1230.5 763.5 Q1264 793 1271 837 L540 824 Q520 823 504.5 809.5 Q489 796 485 775 L478 720 L765 725 L731 485 L452 485 Q438 485 427.5 475.5 Q417 466 414 452 L404 382 L717 382 L666 20 L428 20 Z" /><glyph glyph-name="uni4EFD" unicode="&#x4efd;" d="M50 -99 L193 -99 Q221 -99 241.5 -81 Q262 -63 267 -35 L359 623 L300 623 L419 843 L277 843 Q209 843 169 779 L42 547 L140 547 L50 -99 ZM423 551 L486 551 Q629 551 710 691 L783 841 L618 841 Q568 841 540 792 L423 551 ZM343 -100 Q536 -100 632 99 L755 425 L989 425 L933 28 Q930 7 918 -7 Q905 -21 885 -21 L855 -21 Q832 -21 815 -35.5 Q798 -50 794 -74 L790 -100 L1013 -100 Q1058 -100 1095 -68 Q1132 -35 1139 10 L1208 505 L489 505 Q465 505 448 489.5 Q431 474 427 451 L423 425 L542 425 L343 -100 ZM994 750 Q1014 662 1081.5 606.5 Q1149 551 1238 551 L1250 551 L1201 791 Q1196 813 1179 827 Q1162 841 1139 841 L975 841 L994 750 Z" /><glyph glyph-name="uni4EFF" unicode="&#x4eff;" d="M1003 514 L772 514 L798 602 L1225 602 L1141 13 Q1135 -32 1098 -64 Q1061 -96 1014 -96 L720 -96 L722 -81 Q728 -49 752 -28 Q776 -7 808 -7 L892 -7 Q907 -7 919 3 Q932 14 934 29 L1003 514 ZM1278 748 Q1274 728 1258.5 714.5 Q1243 701 1222 701 L805 701 L782 626 L748 523 L742 506 L578 -4 Q536 -100 445 -100 L334 -100 L592 701 L451 701 L455 733 Q458 754 473.5 767 Q489 780 510 780 L772 780 L781 843 L935 843 Q956 843 970 827.5 Q984 812 982 790 L980 780 L1282 780 L1278 748 ZM165 794 Q193 841 241 841 L405 841 L279 576 L338 576 L242 -95 L33 -95 L118 500 L19 500 L165 794 Z" /><glyph glyph-name="uni4F01" unicode="&#x4f01;" d="M837 317 L795 -1 L1207 -1 L1202 -36 Q1198 -64 1179 -82 Q1160 -100 1134 -100 L19 -100 L23 -65 Q27 -37 46.5 -19 Q66 -1 92 -1 L154 -1 L210 424 Q215 457 238 478.5 Q261 500 292 500 L423 500 L356 -1 L593 -1 L673 604 Q677 631 695.5 648.5 Q714 666 739 666 L883 666 L850 416 L1223 416 L1221 402 Q1215 365 1189.5 341 Q1164 317 1130 317 L837 317 ZM1199 828 Q1221 814 1228 786 L1282 557 L1158 557 Q1122 557 1094 580.5 Q1066 604 1057 643 L1033 747 Q1029 761 1014 761 L426 761 Q419 761 412 757 Q406 753 403 747 L342 619 Q308 557 249 557 L108 557 L219 786 Q232 814 258 828 Q283 843 312 843 L1150 843 Q1178 843 1199 828 Z" /><glyph glyph-name="uni4F0A" unicode="&#x4f0a;" d="M43 -100 L124 460 L19 460 L183 796 Q210 843 260 843 L438 843 L318 582 L356 582 L257 -100 L43 -100 ZM1282 571 L1275 524 Q1273 510 1262 500.5 Q1251 491 1237 491 L1227 491 L1204 334 Q1197 289 1159 257 Q1121 225 1073 225 L759 225 L695 6 Q651 -100 550 -100 L449 -100 L544 225 L397 225 L402 254 Q405 276 422 290.5 Q439 305 462 305 L566 305 L620 491 L414 491 L421 539 Q423 553 434 562 Q445 571 459 571 L643 571 L687 758 L537 758 Q512 758 496 775.5 Q480 793 483 818 L486 838 L1277 838 L1238 571 L1282 571 ZM991 341 L1012 491 L834 491 L781 305 L947 305 Q963 305 976 316 Q988 327 991 341 ZM1024 571 L1051 758 L901 758 L856 571 L1024 571 Z" /><glyph glyph-name="uni4F0D" unicode="&#x4f0d;" d="M36 -100 L244 -100 L335 548 L268 548 L404 843 L227 843 Q193 843 175 810 L32 508 L121 508 L36 -100 ZM361 -14 Q342 -14 328 -26.5 Q314 -39 311 -58 L306 -94 L1114 -94 Q1130 -94 1142.5 -83.5 Q1155 -73 1157 -56 L1163 -14 L1107 -14 L1169 430 Q1177 482 1146 517 Q1116 552 1064 552 L756 552 L807 757 L1215 757 Q1235 757 1250 770 Q1265 783 1268 803 L1273 837 L484 837 Q467 837 454.5 826 Q442 815 440 798 L434 757 L599 757 L549 552 L457 552 Q438 552 424.5 540.5 Q411 529 408 510 L403 473 L530 473 L425 -14 L361 -14 ZM962 436 L899 -14 L632 -14 L738 473 L931 473 Q947 473 956 463 Q965 452 962 436 Z" /><glyph glyph-name="uni4F0F" unicode="&#x4f0f;" d="M53 -100 L206 -100 Q229 -100 246.5 -85 Q264 -70 268 -46 L346 513 L288 513 L438 839 L223 839 L31 437 L128 437 L53 -100 ZM1021 339 Q996 398 941 398 L819 398 L896 545 L1205 545 Q1225 545 1240 558 Q1255 571 1258 591 L1263 633 L1196 633 L1198 694 Q1199 754 1160 794.5 Q1121 835 1064 835 L1024 835 L1014 633 L923 633 L981 843 L796 843 Q760 843 745 803 L698 633 L486 633 Q467 633 453.5 620.5 Q440 608 437 590 L431 545 L669 545 L328 -99 L364 -99 Q540 -99 646 68 L780 314 L859 91 Q945 -99 1125 -99 L1160 -99 L1021 339 Z" /><glyph glyph-name="uni4F10" unicode="&#x4f10;" d="M39 -100 L191 -100 Q216 -100 234 -84.5 Q252 -69 256 -44 L341 565 L282 565 L410 843 L239 843 Q198 843 174 802 L24 489 L122 489 L39 -100 ZM870 92 Q956 -100 1138 -100 L1156 -100 L1032 265 L1118 296 Q1213 335 1224 437 L1002 357 L896 672 L1210 672 Q1234 672 1251.5 687 Q1269 702 1273 726 L1277 751 L1183 751 L1179 768 Q1152 833 1091 833 L975 833 L999 751 L869 751 L851 808 Q837 841 806 841 L619 841 L648 751 L502 751 Q479 751 461 736 Q443 721 440 697 L436 672 L675 672 L804 287 L393 141 Q354 125 349 83 L346 21 L835 195 L870 92 Z" /><glyph glyph-name="uni4F11" unicode="&#x4f11;" d="M336 -97 Q417 -97 480 -47.5 Q543 2 564 82 L691 599 L544 599 Q528 599 515.5 589 Q503 579 498 563 L336 -97 ZM652 -97 L859 -97 L963 644 L1218 644 Q1237 644 1251 656 Q1265 668 1268 687 L1274 729 L975 729 L991 843 L833 843 Q812 843 796 829.5 Q780 816 777 794 L768 729 L506 729 Q487 729 473 717 Q459 705 456 686 L450 644 L756 644 L652 -97 ZM989 87 Q989 10 1040 -43.5 Q1091 -97 1167 -97 L1190 559 Q1190 576 1179 587.5 Q1168 599 1152 599 L1007 599 L989 87 ZM200 817 Q214 841 239 841 L428 841 L297 573 L356 573 L255 -64 Q252 -80 240 -90.5 Q228 -101 212 -101 L42 -101 L136 492 L38 492 L200 817 Z" /><glyph glyph-name="uni4F17" unicode="&#x4f17;" d="M397 26 Q401 -28 437.5 -64 Q474 -100 524 -100 L599 -100 L569 402 Q568 416 558.5 425.5 Q549 435 536 435 L407 435 L444 559 L305 559 Q249 559 222 497 L27 -100 Q209 -100 297 100 L378 344 L397 26 ZM423 761 L1028 761 Q1035 761 1041 758 Q1046 755 1048 748 L1062 635 Q1065 615 1079.5 601.5 Q1094 588 1113 588 L1273 588 L1242 786 Q1236 815 1215 829 Q1193 843 1164 843 L309 843 Q281 843 255 829 Q229 815 216 786 L132 588 L303 588 Q334 588 350 622 L400 748 Q403 755 410 758 Q416 761 423 761 ZM991 24 Q996 -30 1031.5 -65 Q1067 -100 1117 -100 L1194 -100 L1164 402 Q1163 416 1153.5 425.5 Q1144 435 1130 435 L1001 435 L1038 559 L902 559 Q844 559 816 495 L622 -100 L669 -100 Q808 -100 875 54 L972 344 L991 24 Z" /><glyph glyph-name="uni4F18" unicode="&#x4f18;" d="M35 -100 L184 -100 Q212 -100 232 -82.5 Q252 -65 257 -37 L343 560 L283 560 L414 843 L214 843 Q195 843 185 824 L19 484 L119 484 L35 -100 ZM308 -100 L377 -100 Q509 -100 579 32 L827 600 L1215 600 Q1239 600 1257 615 Q1275 630 1279 654 L1282 680 L1209 680 L1213 747 Q1214 786 1188 812.5 Q1162 839 1123 839 L1020 839 L1011 680 L859 680 L907 843 L740 843 Q700 843 682 801 L646 680 L500 680 Q476 680 458.5 664.5 Q441 649 437 625 L433 600 L613 600 L308 -100 ZM906 -100 L1174 -100 Q1177 -68 1156 -44.5 Q1135 -21 1103 -21 L1043 -21 Q1028 -21 1018 -10 Q1008 0 1011 16 L1087 550 L902 550 Q890 550 881 542.5 Q872 535 870 523 L799 23 Q792 -29 823 -65 Q854 -100 906 -100 Z" /><glyph glyph-name="uni4F19" unicode="&#x4f19;" d="M227 843 L415 843 L285 576 L344 576 L243 -58 Q240 -74 228 -84 Q216 -94 200 -94 L30 -94 L124 496 L27 496 L188 819 Q202 843 227 843 ZM962 -39 Q1005 -100 1062 -100 L1229 -100 L988 202 Q970 226 947 226 L876 226 L901 260 Q906 268 907 277 L967 839 L829 839 Q809 839 794 821.5 Q779 804 776 777 L720 313 L377 -100 L550 -100 Q612 -100 661 -41 L811 132 L962 -39 ZM469 327 L600 327 Q615 327 626 341 Q637 355 638 376 L659 797 L561 797 Q532 797 510.5 770 Q489 743 486 702 L469 327 ZM1022 327 L1074 327 Q1125 327 1163.5 369 Q1202 411 1214 478 L1263 797 L1134 797 Q1117 797 1103.5 782.5 Q1090 768 1086 745 L1022 327 Z" /><glyph glyph-name="uni4F1A" unicode="&#x4f1a;" d="M360 743 Q342 743 331 726 L274 620 L49 620 L141 794 Q176 843 231 843 L1110 843 Q1172 843 1206 782 L1282 620 L1067 620 L1016 718 Q1000 743 974 743 L360 743 ZM150 538 Q165 574 200 574 L1155 574 L1145 505 Q1142 492 1132 484 Q1123 475 1110 475 L136 475 L150 538 ZM49 324 Q65 337 85 337 L1231 337 L1223 289 Q1218 265 1200 250 Q1182 235 1159 235 L409 235 L339 53 Q334 39 340 30 Q345 19 359 19 L927 54 L968 -50 L129 -100 Q86 -100 63.5 -68 Q41 -36 56 4 L164 235 L19 235 L29 290 Q33 311 49 324 ZM1112 138 L1179 -100 L949 -100 L874 182 L1052 182 Q1093 182 1112 138 Z" /><glyph glyph-name="uni4F1E" unicode="&#x4f1e;" d="M487 -100 L693 -100 L719 92 L1164 92 Q1185 92 1201 106.5 Q1217 121 1220 143 L1226 190 L732 190 L795 660 L663 660 Q631 660 607.5 638.5 Q584 617 579 584 L526 190 L81 190 Q60 190 44 175.5 Q28 161 25 139 L19 92 L513 92 L487 -100 ZM404 761 L1014 761 Q1029 761 1034 747 L1053 673 Q1080 602 1143 602 L1282 602 L1231 786 Q1224 814 1202 828 Q1181 843 1152 843 L288 843 Q259 843 234 828 Q208 814 194 786 L94 602 L249 602 Q299 602 330 652 L381 747 Q389 761 404 761 ZM132 243 L323 243 L316 376 Q310 450 261 498.5 Q212 547 144 547 L116 547 L132 243 ZM957 243 L1148 243 L1245 547 L1178 547 Q1067 547 1015 424 L957 243 Z" /><glyph glyph-name="uni4F1F" unicode="&#x4f1f;" d="M655 325 L592 -100 L789 -100 Q802 -100 812 -91 Q822 -83 824 -70 L884 325 L1038 325 L999 64 Q996 47 986 35 Q974 23 954 23 Q932 23 916 9 Q899 -5 896 -26 L892 -45 L1065 -45 Q1089 -45 1112 -37 Q1133 -28 1150 -13 Q1166 1 1178 20 Q1188 39 1191 58 L1242 393 L894 393 L915 538 L1190 538 Q1206 538 1219 548 Q1232 558 1235 574 L1239 606 L926 606 L944 734 L1228 734 Q1247 734 1261 746 Q1275 758 1279 776 L1282 802 L954 802 L960 843 L770 843 Q754 843 742.5 833.5 Q731 824 728 809 L727 802 L525 802 Q505 802 492 790 Q478 778 474 760 L471 734 L717 734 L697 606 L501 606 Q485 606 471 596 Q458 586 456 570 L451 538 L688 538 L666 393 L472 393 Q450 393 433 380 Q417 366 413 345 L410 325 L655 325 ZM121 501 L33 -100 L217 -100 Q231 -100 241 -92 Q251 -84 253 -71 L345 577 L285 577 L415 843 L235 843 Q195 843 174 807 L19 501 L121 501 Z" /><glyph glyph-name="uni4F20" unicode="&#x4f20;" d="M40 -100 L216 -100 Q235 -100 250.5 -87.5 Q266 -75 269 -57 L358 537 L295 537 L435 843 L242 843 Q208 843 189 809 L19 461 L124 461 L40 -100 ZM1074 -19 L1202 310 Q1209 331 1196.5 347 Q1184 363 1160 363 L740 363 L796 494 L1216 494 Q1234 494 1247 504.5 Q1260 515 1263 530 L1271 574 L832 574 L886 699 L1221 699 Q1241 699 1257 711 Q1273 723 1276 740 L1282 779 L920 779 L950 839 L711 839 L681 779 L558 779 Q544 779 533 770.5 Q522 762 520 750 L512 699 L646 699 L593 574 L500 574 Q487 574 478 567 Q469 560 467 550 L459 494 L557 494 L466 283 L965 283 L845 -3 Q840 -14 829 -20 Q819 -27 805 -27 L711 -27 Q697 -27 689 -20 Q681 -14 681 -1 L678 63 L474 63 L482 -16 Q484 -56 517 -77 Q550 -99 591 -99 L938 -99 Q979 -99 1018 -78 Q1059 -58 1074 -19 Z" /><glyph glyph-name="uni4F24" unicode="&#x4f24;" d="M168 805 Q190 843 229 843 L404 843 L278 584 L337 584 L241 -100 L31 -100 L117 508 L19 508 L168 805 ZM717 843 L694 796 L1282 796 L1278 768 Q1272 736 1248.5 715.5 Q1225 695 1193 695 L656 695 L656 693 Q612 616 534 616 L398 616 L483 814 Q498 843 526 843 L717 843 ZM605 84 Q515 -99 337 -99 L321 -99 L526 431 L469 431 Q442 431 425 450.5 Q408 470 411 497 L415 527 L558 527 L574 568 Q584 589 604 589 L795 589 L771 527 L1224 527 L1152 11 Q1145 -35 1108 -67 Q1072 -99 1025 -99 L772 -98 Q778 -60 806 -36 Q834 -12 871 -12 L890 -12 Q911 -12 927 3 Q943 17 946 38 L1002 431 L739 431 L605 84 Z" /><glyph glyph-name="uni4F26" unicode="&#x4f26;" d="M36 -99 L250 -99 L345 557 L285 557 L416 843 L259 843 Q200 843 168 787 L19 481 L120 481 L36 -99 ZM1060 582 L1282 582 L1250 774 Q1246 802 1226 820 Q1205 838 1175 838 L609 838 Q579 838 554 820 Q529 802 515 774 L429 582 L650 582 L718 731 Q731 758 759 758 L1003 758 Q1030 758 1035 731 L1060 582 ZM464 539 L388 10 Q381 -35 410 -68 Q439 -100 485 -100 L1151 -100 Q1156 -53 1125.5 -19 Q1095 15 1047 15 L640 15 Q624 15 615 26 Q605 36 608 52 L636 251 L1121 319 Q1211 337 1229 425 L1233 453 L654 371 L678 539 L464 539 Z" /><glyph glyph-name="uni4F2A" unicode="&#x4f2a;" d="M31 -99 L245 -99 L344 591 L284 591 L411 843 L243 843 Q194 843 165 796 L19 515 L119 515 L31 -99 ZM313 -100 L418 -100 Q516 -100 567 -2 L686 277 L942 224 L947 246 Q956 286 934.5 319 Q913 352 872 362 L733 391 L827 607 L1056 607 L973 29 Q970 8 954 -6 Q937 -20 916 -20 L821 -20 Q793 -20 771.5 -38 Q750 -56 746 -84 L743 -100 L1054 -100 Q1102 -100 1140 -67 Q1178 -35 1184 11 L1282 687 L860 687 L926 841 L712 841 L646 687 L400 687 L396 661 Q394 639 408 623 Q422 607 444 607 L613 607 L313 -100 ZM450 839 L435 731 L627 717 L632 752 Q636 783 617.5 805 Q599 827 568 830 L450 839 Z" /><glyph glyph-name="uni4F2F" unicode="&#x4f2f;" d="M988 776 L1282 776 L1174 19 Q1169 -5 1157 -28 Q1144 -51 1125 -67 Q1106 -83 1082 -92 Q1060 -101 1035 -101 L472 -101 Q447 -101 425 -92 Q404 -83 390 -68 Q374 -51 368 -29 Q361 -6 365 19 L474 776 L693 776 L683 707 L679 680 L640 415 L1011 415 L1054 710 L717 710 L726 776 L769 776 L772 797 Q775 816 789.5 828.5 Q804 841 823 841 L999 841 L988 776 ZM951 -2 L1000 334 L629 334 L580 -2 Q578 -12 585 -19 Q590 -27 600 -27 L926 -27 Q931 -27 935 -25 Q939 -23 943 -19 Q951 -12 951 -2 ZM421 843 L286 575 L347 575 L243 -64 Q240 -80 228 -91 Q215 -101 198 -101 L23 -101 L120 493 L19 493 L187 819 Q201 843 226 843 L421 843 Z" /><glyph glyph-name="uni4F30" unicode="&#x4f30;" d="M199 819 Q213 843 238 843 L426 843 L296 577 L355 577 L254 -57 Q251 -73 239 -83.5 Q227 -94 211 -94 L41 -94 L135 496 L38 496 L199 819 ZM1257 685 Q1253 660 1234.5 644 Q1216 628 1191 628 L943 628 L919 462 L1201 462 L1138 11 Q1131 -35 1094 -68 Q1057 -101 1010 -101 L458 -101 Q410 -101 382 -68 Q353 -35 359 11 L423 462 L638 462 L577 30 Q574 9 586 -5 Q597 -18 618 -18 L873 -18 Q894 -18 912 -5 Q929 9 933 30 L984 388 L661 388 L671 462 L704 462 L728 628 L421 628 L427 672 Q430 689 442.5 700 Q455 711 472 711 L739 711 L750 784 Q754 810 773 826.5 Q792 843 817 843 L973 843 L954 711 L1261 711 L1257 685 Z" /><glyph glyph-name="uni4F34" unicode="&#x4f34;" d="M34 -100 L248 -100 L345 575 L285 575 L414 842 L258 842 Q198 842 163 784 L19 500 L120 500 L34 -100 ZM386 220 Q370 220 359 210.5 Q348 201 345 186 L338 132 L677 132 L644 -100 L841 -100 L875 132 L1179 132 Q1195 132 1206 141.5 Q1217 151 1220 166 L1227 220 L888 220 L916 417 L1210 417 Q1226 417 1237 427 Q1248 437 1251 451 L1258 505 L929 505 L978 843 L873 843 Q833 843 803.5 818 Q774 793 767 753 L731 505 L437 505 Q422 505 410.5 495.5 Q399 486 397 471 L389 417 L719 417 L690 220 L386 220 ZM455 542 L658 542 L664 639 Q667 722 611.5 779 Q556 836 473 836 L455 542 ZM1012 542 L1216 542 L1282 836 L1249 836 Q1175 836 1118 791.5 Q1061 747 1043 675 L1012 542 Z" /><glyph glyph-name="uni4F36" unicode="&#x4f36;" d="M30 -100 L245 -100 L347 600 L286 600 L412 843 L247 843 Q194 843 163 793 L19 524 L121 524 L30 -100 ZM770 758 L978 758 Q1006 758 1011 739 L1052 560 L1282 560 L1230 773 Q1220 803 1192 821 Q1165 838 1127 838 L641 838 Q601 838 568 820 Q534 802 517 772 L411 560 L645 560 L731 737 Q742 758 770 758 ZM1233 344 L1245 423 L417 423 Q414 391 435 367.5 Q456 344 489 344 L1013 344 L836 2 Q831 -11 820 -18 Q809 -25 796 -25 L700 -25 Q686 -25 677 -18 Q668 -11 667 2 L653 108 Q646 155 610.5 185.5 Q575 216 526 216 L415 216 L441 -6 Q445 -46 476 -72 Q506 -98 551 -98 L921 -98 Q966 -98 1003 -73 Q1040 -47 1057 -6 L1233 344 ZM753 470 L964 470 L963 544 Q960 593 925.5 626 Q891 659 841 659 L749 659 L753 470 Z" /><glyph glyph-name="uni4F38" unicode="&#x4f38;" d="M976 782 L1282 782 L1189 134 Q1183 87 1146 56 Q1109 24 1062 24 L867 24 L850 -100 L637 -100 L655 24 L459 24 Q413 24 385 56 Q357 87 364 134 L457 782 L663 782 L651 703 L646 667 L616 458 L717 458 L753 703 L678 703 L690 782 L764 782 L766 798 Q769 818 784 830.5 Q799 843 820 843 L985 843 L976 782 ZM666 103 L706 379 L605 379 L571 140 Q568 124 578 114 Q588 103 603 103 L666 103 ZM983 140 L1017 379 L918 379 L879 103 L942 103 Q957 103 969 114 Q981 124 983 140 ZM1029 458 L1064 703 L965 703 L930 458 L1029 458 ZM166 797 Q193 843 242 843 L409 843 L282 585 L342 585 L244 -97 L32 -97 L119 509 L19 509 L166 797 Z" /></font>
</defs>
</svg>
